<?xml version="1.0" standalone="no"?>
<!DOCTYPE svg PUBLIC "-//W3C//DTD SVG 1.1//EN" "http://www.w3.org/Graphics/SVG/1.1/DTD/svg11.dtd" >
<svg xmlns="http://www.w3.org/2000/svg" xmlns:xlink="http://www.w3.org/1999/xlink" version="1.1">
<metadata>
Created by FontForge 20190801 at Tue May 31 09:58:46 2016
 By www-data
Copyright 2009 The Cairo Project Authors (gaber@gaberism.net)
</metadata>
<defs>
<font id="CairoLight" horiz-adv-x="560" >
  <font-face 
    font-family="CairoLight"
    font-weight="300"
    font-stretch="normal"
    units-per-em="1000"
    panose-1="0 0 4 0 0 0 0 0 0 0"
    ascent="800"
    descent="-200"
    x-height="500"
    cap-height="697"
    bbox="-224 -438 1564 1167"
    underline-thickness="50"
    underline-position="-100"
    unicode-range="U+000D-FEFC"
  />
<missing-glyph horiz-adv-x="235" 
 />
    <glyph glyph-name="uniFDF2" unicode="&#x627;&#xfedf;&#xfee0;&#xfeea;" horiz-adv-x="1342" arabic-form="isolated" 
d="M737 854l-42 -18v174l42 18v-174zM663 665q-27 0 -39 13t-12 40t2 49l29 7v-43q0 -16 7 -26.5t23 -7.5q13 1 20.5 12t7.5 28v34l32 7v-37q0 -11 10 -19.5t23 -4.5l23 4v84l27 5q4 -21 4 -52v-59l-54 -10q-12 -2 -16 -2q-24 0 -32 19q-2 -15 -8.5 -25t-29.5 -15
q-6 -1 -17 -1zM945 726h52v-726h-735q-86 0 -134 26.5t-68 80.5t-20 143q0 136 46.5 198t159.5 62q26 0 97 -3t125 -7v-454h233v560h52v-560h192v680zM1253 726v-726h-53v726h53zM109 134q17 -45 57.5 -66.5t111.5 -21.5h138v410q-117 7 -150 7q-95 0 -134.5 -50t-39.5 -160
q0 -74 17 -119z" />
    <glyph glyph-name="uniFEF5" unicode="&#xfedf;&#xfe82;" horiz-adv-x="574" arabic-form="isolated" 
d="M38 0zM489 726v-726h-449v46h129v545h52v-545h217v680h51zM172 682q-24 10 -39.5 16t-23.5 6q-19 0 -53 -31l-9 -7l-9 32q17 19 37 32.5t37 13.5q10 0 24 -4.5t42 -16.5q51 -22 59 -22t24.5 10t26.5 20l8 7l10 -31q-17 -22 -34.5 -34t-31.5 -12q-21 0 -68 21z" />
    <glyph glyph-name="uniFEF6" unicode="&#xfee0;&#xfe82;" horiz-adv-x="582" arabic-form="final" 
d="M38 0zM582 46v-46h-542v46h129v545h52v-545h217v680h51v-680h93zM172 682q-24 10 -39.5 16t-23.5 6q-19 0 -53 -31l-9 -7l-9 32q17 19 37 32.5t37 13.5q10 0 24 -4.5t42 -16.5q51 -22 59 -22t24.5 10t26.5 20l8 7l10 -31q-17 -22 -34.5 -34t-31.5 -12q-21 0 -68 21z" />
    <glyph glyph-name="uniFEF7" unicode="&#xfedf;&#xfe84;" horiz-adv-x="574" arabic-form="isolated" 
d="M40 0zM489 726v-726h-449v46h129v545h52v-545h217v680h51zM274 668l-197 -38l-8 25l48 13q-31 27 -31 67q0 35 24 60.5t63 25.5q23 0 42.5 -8.5t28.5 -15.5l-8 -29q-6 5 -19 10t-29 5q-28 0 -45 -17.5t-17 -41.5q0 -28 23 -47l116 31z" />
    <glyph glyph-name="uniFEF8" unicode="&#xfee0;&#xfe84;" horiz-adv-x="582" arabic-form="final" 
d="M40 0zM582 46v-46h-542v46h129v545h52v-545h217v680h51v-680h93zM274 668l-197 -38l-8 25l48 13q-31 27 -31 67q0 35 24 60.5t63 25.5q23 0 42.5 -8.5t28.5 -15.5l-8 -29q-6 5 -19 10t-29 5q-28 0 -45 -17.5t-17 -41.5q0 -28 23 -47l116 31z" />
    <glyph glyph-name="uniFEF9" unicode="&#xfedf;&#xfe88;" horiz-adv-x="574" arabic-form="isolated" 
d="M40 0zM489 726v-726h-449v46h129v545h52v-545h217v680h51zM291 -232l-198 -39l-8 26l49 13q-32 28 -32 67q0 34 24.5 59.5t63.5 25.5q23 0 42.5 -8.5t28.5 -15.5l-9 -28q-6 5 -19 10t-29 5q-28 0 -45 -17.5t-17 -42.5q0 -28 23 -47l116 31z" />
    <glyph glyph-name="uniFEFA" unicode="&#xfee0;&#xfe88;" horiz-adv-x="582" arabic-form="final" 
d="M40 0zM582 46v-46h-542v46h129v545h52v-545h217v680h51v-680h93zM291 -232l-198 -39l-8 26l49 13q-32 28 -32 67q0 34 24.5 59.5t63.5 25.5q23 0 42.5 -8.5t28.5 -15.5l-9 -28q-6 5 -19 10t-29 5q-28 0 -45 -17.5t-17 -42.5q0 -28 23 -47l116 31z" />
    <glyph glyph-name="uniFEFB" unicode="&#xfedf;&#xfe8e;" horiz-adv-x="574" arabic-form="isolated" 
d="M489 726v-726h-449v46h129v545h52v-545h217v680h51z" />
    <glyph glyph-name="uniFEFC" unicode="&#xfee0;&#xfe8e;" horiz-adv-x="582" arabic-form="final" 
d="M582 46v-46h-542v46h129v545h52v-545h217v680h51v-680h93z" />
    <glyph glyph-name="uni06440671" unicode="&#xfedf;&#xfb51;" horiz-adv-x="574" 
d="M40 0zM489 726v-726h-449v46h129v545h52v-545h217v680h51zM53 683h47q0 26 13.5 49.5t39.5 38.5t59 15q39 0 61.5 -23t22.5 -80v-32h-243v32zM265 683q0 74 -61 74q-34 0 -58 -19t-24 -55h143z" />
    <glyph glyph-name="uni06440671.fina" unicode="&#xfee0;&#xfb51;" horiz-adv-x="582" 
d="M40 0zM582 46v-46h-542v46h129v545h52v-545h217v680h51v-680h93zM53 683h47q0 26 13.5 49.5t39.5 38.5t59 15q39 0 61.5 -23t22.5 -80v-32h-243v32zM265 683q0 74 -61 74q-34 0 -58 -19t-24 -55h143z" />
    <glyph glyph-name="uni066E.init" unicode="&#x66e;" horiz-adv-x="286" 
d="M201 500v-500h-201v46h149v454h52z" />
    <glyph glyph-name="uni066E.medi" unicode="&#x66e;" horiz-adv-x="350" 
d="M350 46v-46h-350v46h149v454h52v-454h149z" />
    <glyph glyph-name="uni066E.fina" unicode="&#x66e;" horiz-adv-x="792" 
d="M792 46v-46h-491q-101 0 -154.5 17t-73 49t-19.5 84q0 71 31 239l39 -2q-4 -38 -11 -91q-13 -98 -13 -134q0 -49 19.5 -73.5t63 -33.5t124.5 -9h288v454h52v-454h145z" />
    <glyph glyph-name="uni066F.init" unicode="&#x66f;" horiz-adv-x="565" 
d="M0 0zM501 490v-490h-501v46h159q-20 32 -26.5 74t-6.5 108q0 109 18.5 166.5t66 81t138.5 23.5q73 0 135 -7zM218 46h231v404q-69 6 -108 6q-67 0 -102.5 -22.5t-49 -68t-13.5 -123.5q0 -154 42 -196z" />
    <glyph glyph-name="uni066F.medi" unicode="&#x66f;" horiz-adv-x="585" 
d="M0 0zM585 46v-46h-585v46h159q-20 32 -26.5 74t-6.5 108q0 109 18.5 166.5t66 81t138.5 23.5q73 0 135 -7l17 -2v-444h84zM218 46h231v404q-69 6 -108 6q-67 0 -102.5 -22.5t-49 -68t-13.5 -123.5q0 -154 42 -196z" />
    <glyph glyph-name="uni066F.fina" unicode="&#x66f;" horiz-adv-x="871" 
d="M871 0h-109v-37q0 -94 -59.5 -147t-159.5 -53h-281q-100 0 -161 53.5t-61 147.5q0 74 34 270l50 -8q-16 -104 -23 -157t-7 -87q0 -82 43.5 -127.5t128.5 -45.5h271q87 0 130 45t43 129v17h-154q-65 0 -101.5 21.5t-52.5 71t-16 139.5t17.5 148t62 89t125.5 31
q26 0 74 -2.5t80 -5.5l17 -2v-444h109v-46zM451.5 123q13.5 -41 44 -59t83.5 -18h131v403l-21 2q-78 6 -87 6q-93 0 -128.5 -53t-35.5 -167q0 -73 13.5 -114z" />
    <glyph glyph-name="uni06A1.init" unicode="&#x6a1;" horiz-adv-x="565" 
d="M501 490v-490h-501v46h159q-20 32 -26.5 74t-6.5 108q0 109 18.5 166.5t66 81t138.5 23.5q73 0 135 -7zM218 46h231v404q-69 6 -108 6q-67 0 -102.5 -22.5t-49 -68t-13.5 -123.5q0 -154 42 -196z" />
    <glyph glyph-name="uni06A1.medi" unicode="&#x6a1;" horiz-adv-x="585" 
d="M585 46v-46h-585v46h159q-20 32 -26.5 74t-6.5 108q0 109 18.5 166.5t66 81t138.5 23.5q73 0 135 -7l17 -2v-444h84zM218 46h231v404q-69 6 -108 6q-67 0 -102.5 -22.5t-49 -68t-13.5 -123.5q0 -154 42 -196z" />
    <glyph glyph-name="uni06A1.fina" unicode="&#x6a1;" horiz-adv-x="960" 
d="M960 46v-46h-673q-101 0 -154.5 17t-73 49t-19.5 84q0 39 9.5 106t22.5 133l40 -2l-4 -30q-22 -143 -22 -195q0 -49 19.5 -73.5t63 -33.5t124.5 -9h240q-19 33 -26 75t-7 107q0 109 19 166.5t66 81t139 23.5q72 0 134 -7l17 -2v-444h85zM592 46h231v405q-77 5 -108 5
q-67 0 -102.5 -22.5t-49 -68t-13.5 -123.5q0 -154 42 -196z" />
    <glyph glyph-name="uni06BA.init" unicode="&#x6ba;" horiz-adv-x="286" 
d="M0 0zM201 500v-500h-201v46h149v454h52z" />
    <glyph glyph-name="uni06BA.medi" unicode="&#x6ba;" horiz-adv-x="350" 
d="M0 0zM350 46v-46h-350v46h149v454h52v-454h149z" />
    <glyph glyph-name="uni06C2.init" unicode="&#x6c2;" horiz-adv-x="286" 
d="M0 0zM201 500v-500h-201v46h149v454h52zM120 -60h42l-45 -217h-54zM274 629l-197 -38l-8 25l48 13q-31 27 -31 67q0 35 24 60.5t63 25.5q23 0 42.5 -8.5t28.5 -15.5l-8 -29q-6 5 -19 10t-29 5q-28 0 -45 -17.5t-17 -41.5q0 -28 23 -47l116 31z" />
    <glyph glyph-name="uni06C2.medi" unicode="&#x6c2;" horiz-adv-x="529" 
d="M0 0zM529 0h-120v-311l-16 -2q-10 -1 -23.5 -1.5t-22.5 -1.5q-85 0 -131.5 21.5t-70.5 89t-26 205.5h-119v46h171v-31q0 -134 17.5 -194t54 -76.5t113.5 -17.5v319h173v-46zM365 323l-197 -38l-8 25l48 13q-31 27 -31 67q0 35 24 60.5t63 25.5q23 0 42.5 -8.5t28.5 -15.5
l-8 -29q-6 5 -19 10t-29 5q-28 0 -45 -17.5t-17 -41.5q0 -28 23 -47l116 31z" />
    <glyph glyph-name="uni06C2.fina" unicode="&#x6c2;" horiz-adv-x="586" 
d="M40 0zM586 46v-46h-324q-86 0 -134 26.5t-68 80.5t-20 143q0 136 46.5 198t159.5 62q26 0 97 -3t125 -7v-454h118zM109 134q17 -45 57.5 -66.5t111.5 -21.5h138v410q-117 7 -150 7q-95 0 -134.5 -50t-39.5 -160q0 -74 17 -119zM382 629l-197 -38l-8 25l48 13
q-31 27 -31 67q0 35 24 60.5t63 25.5q23 0 42.5 -8.5t28.5 -15.5l-8 -29q-6 5 -19 10t-29 5q-28 0 -45 -17.5t-17 -41.5q0 -28 23 -47l116 31z" />
    <glyph glyph-name="uni06C3.fina" unicode="&#x6c3;" horiz-adv-x="589" 
d="M40 0zM589 46v-46h-173v458q-25 2 -80 3.5t-84 1.5q-88 0 -123.5 -46.5t-35.5 -151.5v-265h-53v268q0 122 45 182.5t141 60.5q48 0 123.5 -3t101.5 -6l18 -2v-454h120zM198 689h64v-66h-64v66zM311 689h64v-66h-64v66z" />
    <glyph glyph-name="uniFB51" unicode="&#x671;" horiz-adv-x="239" arabic-form="final" 
d="M0 0zM239 46v-46h-145v640h53v-594h92zM-2 723h47q0 26 13.5 49.5t39.5 38.5t59 15q39 0 61.5 -23t22.5 -80v-32h-243v32zM210 723q0 74 -61 74q-34 0 -58 -19t-24 -55h143z" />
    <glyph glyph-name="uniFB57" unicode="&#x67e;" horiz-adv-x="792" arabic-form="final" 
d="M54 0zM792 46v-46h-491q-101 0 -154.5 17t-73 49t-19.5 84q0 71 31 239l39 -2q-4 -38 -11 -91q-13 -98 -13 -134q0 -49 19.5 -73.5t63 -33.5t124.5 -9h288v454h52v-454h145zM283 -80h64v-68h-64v68zM396 -80h64v-68h-64v68zM338 -196h66v-67h-66v67z" />
    <glyph glyph-name="uniFB58" unicode="&#x67e;" horiz-adv-x="286" arabic-form="initial" 
d="M0 0zM201 500v-500h-201v46h149v454h52zM85 -80h64v-68h-64v68zM198 -80h64v-68h-64v68zM140 -196h66v-67h-66v67z" />
    <glyph glyph-name="uniFB59" unicode="&#x67e;" horiz-adv-x="350" arabic-form="medial" 
d="M0 0zM350 46v-46h-350v46h149v454h52v-454h149zM86 -80h64v-68h-64v68zM199 -80h64v-68h-64v68zM141 -196h66v-67h-66v67z" />
    <glyph glyph-name="uniFB67" unicode="&#x679;" horiz-adv-x="792" arabic-form="final" 
d="M54 0zM792 46v-46h-491q-101 0 -154.5 17t-73 49t-19.5 84q0 71 31 239l39 -2q-4 -38 -11 -91q-13 -98 -13 -134q0 -49 19.5 -73.5t63 -33.5t124.5 -9h288v454h52v-454h145zM449.5 636q19.5 -18 19.5 -61v-75h-198v37h18v175h37v-111q14 27 29 40t44 13q31 0 50.5 -18z
M345 591q-19 -23 -19 -49v-5h105v38q0 39 -36 39q-31 0 -50 -23z" />
    <glyph glyph-name="uniFB68" unicode="&#x679;" horiz-adv-x="286" arabic-form="initial" 
d="M0 0zM201 500v-500h-201v46h149v454h52zM251.5 729q19.5 -18 19.5 -61v-75h-198v37h18v175h37v-111q14 27 29 40t44 13q31 0 50.5 -18zM147 684q-19 -23 -19 -49v-5h105v38q0 39 -36 39q-31 0 -50 -23z" />
    <glyph glyph-name="uniFB69" unicode="&#x679;" horiz-adv-x="350" arabic-form="medial" 
d="M0 0zM350 46v-46h-350v46h149v454h52v-454h149zM252.5 729q19.5 -18 19.5 -61v-75h-198v37h18v175h37v-111q14 27 29 40t44 13q31 0 50.5 -18zM148 684q-19 -23 -19 -49v-5h105v38q0 39 -36 39q-31 0 -50 -23z" />
    <glyph glyph-name="uniFB6B" unicode="&#x6a4;" horiz-adv-x="960" arabic-form="final" 
d="M40 0zM960 46v-46h-673q-101 0 -154.5 17t-73 49t-19.5 84q0 39 9.5 106t22.5 133l40 -2l-4 -30q-22 -143 -22 -195q0 -49 19.5 -73.5t63 -33.5t124.5 -9h240q-19 33 -26 75t-7 107q0 109 19 166.5t66 81t139 23.5q72 0 134 -7l17 -2v-444h85zM592 46h231v405
q-77 5 -108 5q-67 0 -102.5 -22.5t-49 -68t-13.5 -123.5q0 -154 42 -196zM681 776h66v-68h-66v68zM626 661h64v-68h-64v68zM739 661h64v-68h-64v68z" />
    <glyph glyph-name="uniFB6C" unicode="&#x6a4;" horiz-adv-x="565" arabic-form="initial" 
d="M0 0zM501 490v-490h-501v46h159q-20 32 -26.5 74t-6.5 108q0 109 18.5 166.5t66 81t138.5 23.5q73 0 135 -7zM218 46h231v404q-69 6 -108 6q-67 0 -102.5 -22.5t-49 -68t-13.5 -123.5q0 -154 42 -196zM303 776h66v-68h-66v68zM248 661h64v-68h-64v68zM361 661h64v-68h-64
v68z" />
    <glyph glyph-name="uniFB6D" unicode="&#x6a4;" horiz-adv-x="585" arabic-form="medial" 
d="M0 0zM585 46v-46h-585v46h159q-20 32 -26.5 74t-6.5 108q0 109 18.5 166.5t66 81t138.5 23.5q73 0 135 -7l17 -2v-444h84zM218 46h231v404q-69 6 -108 6q-67 0 -102.5 -22.5t-49 -68t-13.5 -123.5q0 -154 42 -196zM264 776h66v-68h-66v68zM209 661h64v-68h-64v68z
M322 661h64v-68h-64v68z" />
    <glyph glyph-name="uniFB7B" unicode="&#x686;" horiz-adv-x="597" arabic-form="final" 
d="M102 -260.5q-58 55.5 -58 162.5q0 100 51 147.5t151 47.5q58 0 108 -15t74 -33v304q0 53 -29.5 80.5t-84.5 27.5q-43 0 -204 -24l-2 43q83 15 131 22.5t84 7.5q63 0 110 -37t47 -137v-290h117v-46h-169q-30 19 -78 34t-100 15q-75 0 -112.5 -35t-37.5 -114
q0 -171 186 -171l8 -46q-8 1 -20 1q-114 0 -172 55.5zM261 -85h72v-84h-72v84zM413 -85h72v-84h-72v84zM339 -208h66v-76h-66v76z" />
    <glyph glyph-name="uniFB7C" unicode="&#x686;" horiz-adv-x="524" arabic-form="initial" 
d="M0 0zM417 473q47 -37 47 -137v-336h-464v46h411v307q0 53 -29.5 80.5t-83.5 27.5q-46 0 -204 -24l-3 43l21 4q141 26 195 26q63 0 110 -37zM180 -80h64v-68h-64v68zM293 -80h64v-68h-64v68zM235 -196h66v-67h-66v67z" />
    <glyph glyph-name="uniFB7D" unicode="&#x686;" horiz-adv-x="582" arabic-form="medial" 
d="M0 0zM582 46v-46h-582v46h411v307q0 53 -29.5 80.5t-83.5 27.5q-46 0 -204 -24l-3 43l21 4q141 26 195 26q63 0 110 -37t47 -137v-290h118zM201 -80h64v-68h-64v68zM314 -80h64v-68h-64v68zM256 -196h66v-67h-66v67z" />
    <glyph glyph-name="uniFB89" unicode="&#x688;" horiz-adv-x="509" arabic-form="final" 
d="M15 0zM509 46v-46h-469v46h327v151q0 156 -61 217t-143 61h-72l-3 36q1 2 27.5 5.5t52.5 3.5q104 0 177.5 -73t73.5 -253v-148h90zM193.5 756q19.5 -18 19.5 -61v-75h-198v37h18v175h37v-111q14 27 29 40t44 13q31 0 50.5 -18zM89 711q-19 -23 -19 -49v-5h105v38
q0 39 -36 39q-31 0 -50 -23z" />
    <glyph glyph-name="uniFB8B" unicode="&#x698;" horiz-adv-x="386" arabic-form="final" 
d="M40 0zM386 0h-107v-18q0 -116 -40.5 -173.5t-124.5 -57.5q-14 0 -74 5v45q58 -4 76 -4q55 0 82.5 44.5t27.5 122.5v535h53v-453h107v-46zM216 776h66v-68h-66v68zM161 661h64v-68h-64v68zM274 661h64v-68h-64v68z" />
    <glyph glyph-name="uniFB8D" unicode="&#x691;" horiz-adv-x="386" arabic-form="final" 
d="M40 0zM386 0h-107v-18q0 -116 -40.5 -173.5t-124.5 -57.5q-14 0 -74 5v45q58 -4 76 -4q55 0 82.5 44.5t27.5 122.5v535h53v-453h107v-46zM327.5 729q19.5 -18 19.5 -61v-75h-198v37h18v175h37v-111q14 27 29 40t44 13q31 0 50.5 -18zM223 684q-19 -23 -19 -49v-5h105v38
q0 39 -36 39q-31 0 -50 -23z" />
    <glyph glyph-name="uniFB8F" unicode="&#x6a9;" horiz-adv-x="808" arabic-form="final" 
d="M808 46v-46h-521q-101 0 -154.5 17t-73 49t-19.5 84q0 36 8 94t19 116l40 -2l-4 -34q-17 -119 -17 -162q0 -49 19.5 -73.5t63 -33.5t124.5 -9h346v155q0 161 -103 162h-272l-43 59l48 95q18 34 56 88.5t77 104.5l36 -20q-56 -84 -77 -119t-40 -71l-48 -91h262
q77 0 117 -52.5t40 -156.5v-154h116z" />
    <glyph glyph-name="uniFB90" unicode="&#x6a9;" horiz-adv-x="563" arabic-form="initial" 
d="M0 0zM463.5 356.5q39.5 -52.5 39.5 -156.5v-200h-503v46h451v155q0 64 -21.5 112.5t-81.5 49.5h-273l-43 59l49 95q32 64 132 193l36 -20q-57 -86 -78.5 -121.5t-38.5 -68.5l-47 -91h262q77 0 116.5 -52.5z" />
    <glyph glyph-name="uniFB91" unicode="&#x6a9;" horiz-adv-x="650" arabic-form="medial" 
d="M0 0zM650 46v-46h-650v46h451v155q0 64 -21.5 112.5t-81.5 49.5h-273l-43 59l49 95q32 64 132 193l36 -20q-57 -86 -78.5 -121.5t-38.5 -68.5l-47 -91h262q77 0 116.5 -52.5t39.5 -156.5v-154h147z" />
    <glyph glyph-name="uniFB93" unicode="&#x6af;" horiz-adv-x="808" arabic-form="final" 
d="M40 0zM808 46v-46h-521q-101 0 -154.5 17t-73 49t-19.5 84q0 36 8 94t19 116l40 -2l-4 -34q-17 -119 -17 -162q0 -49 19.5 -73.5t63 -33.5t124.5 -9h346v155q0 161 -103 162h-272l-43 59l48 95q18 34 56 88.5t77 104.5l36 -20q-56 -84 -77 -119t-40 -71l-48 -91h262
q77 0 117 -52.5t40 -156.5v-154h116zM178 483l29 57q15 30 56.5 89t80.5 106l29 -16q-42 -51 -89 -118.5t-59 -93.5l-26 -52z" />
    <glyph glyph-name="uniFB94" unicode="&#x6af;" horiz-adv-x="563" arabic-form="initial" 
d="M0 0zM463.5 356.5q39.5 -52.5 39.5 -156.5v-200h-503v46h451v155q0 64 -21.5 112.5t-81.5 49.5h-273l-43 59l49 95q32 64 132 193l36 -20q-57 -86 -78.5 -121.5t-38.5 -68.5l-47 -91h262q77 0 116.5 -52.5zM-12 483l29 57q15 30 56.5 89t80.5 106l29 -16
q-42 -51 -89 -118.5t-59 -93.5l-26 -52z" />
    <glyph glyph-name="uniFB95" unicode="&#x6af;" horiz-adv-x="650" arabic-form="medial" 
d="M0 0zM650 46v-46h-650v46h451v155q0 64 -21.5 112.5t-81.5 49.5h-273l-43 59l49 95q32 64 132 193l36 -20q-57 -86 -78.5 -121.5t-38.5 -68.5l-47 -91h262q77 0 116.5 -52.5t39.5 -156.5v-154h147zM-12 483l29 57q15 30 56.5 89t80.5 106l29 -16q-42 -51 -89 -118.5
t-59 -93.5l-26 -52z" />
    <glyph glyph-name="uniFB9F" unicode="&#x6ba;" horiz-adv-x="649" arabic-form="final" 
d="M649 0h-119v-51q0 -68 -34.5 -112.5t-89.5 -64.5t-116 -20q-68 0 -125.5 24.5t-91 70.5t-33.5 107q0 39 13 134t29 184l51 -3q-39 -252 -39 -314q0 -47 26 -82.5t70.5 -55t98.5 -19.5q78 0 133.5 39.5t55.5 118.5v544h52v-454h119v-46z" />
    <glyph glyph-name="uniFBA7" unicode="&#x6c1;" horiz-adv-x="589" arabic-form="final" 
d="M589 46v-46h-173v458q-25 2 -80 3.5t-84 1.5q-88 0 -123.5 -46.5t-35.5 -151.5v-265h-53v268q0 122 45 182.5t141 60.5q48 0 123.5 -3t101.5 -6l18 -2v-454h120z" />
    <glyph glyph-name="uniFBA8" unicode="&#x6c1;" horiz-adv-x="286" arabic-form="initial" 
d="M0 0zM201 500v-500h-201v46h149v454h52zM120 -60h42l-45 -217h-54z" />
    <glyph glyph-name="uniFBA9" unicode="&#x6c1;" horiz-adv-x="529" arabic-form="medial" 
d="M529 0h-120v-311l-16 -2q-10 -1 -23.5 -1.5t-22.5 -1.5q-85 0 -131.5 21.5t-70.5 89t-26 205.5h-119v46h171v-31q0 -134 17.5 -194t54 -76.5t113.5 -17.5v319h173v-46z" />
    <glyph glyph-name="uniFBAB" unicode="&#x6be;" horiz-adv-x="762" arabic-form="final" 
d="M762 46v-46h-722v46h58v106q1 47 24.5 86t62 61.5t83.5 22.5q44 0 82.5 -21t62.5 -60t24 -89v-106h169v157q0 278 -272 278q-76 0 -204 -23l-2 38q4 2 38.5 10.5t81.5 15t93 6.5q134 0 226 -68.5t92 -253.5v-160h103zM184 243.5q-34 -32.5 -34 -78.5v-119h234v118
q0 47 -33 79.5t-83 32.5t-84 -32.5z" />
    <glyph glyph-name="uniFBAC" unicode="&#x6be;" horiz-adv-x="744" arabic-form="initial" 
d="M0 0zM587.5 459.5q92.5 -68.5 92.5 -253.5v-206h-680v46h119v106q1 47 24.5 86t62 61.5t83.5 22.5q43 0 81.5 -21t62.5 -60t24 -89v-106h170v157q0 278 -273 278q-75 0 -203 -23l-2 38q4 2 38.5 10.5t81 15t92.5 6.5q134 0 226.5 -68.5zM205 243.5q-34 -32.5 -34 -78.5
v-119h234v118q0 47 -33 79.5t-83 32.5t-84 -32.5z" />
    <glyph glyph-name="uniFBAD" unicode="&#x6be;" horiz-adv-x="783" arabic-form="medial" 
d="M0 0zM783 46v-46h-783v46h119v106q1 47 24.5 86t62 61.5t83.5 22.5q43 0 81.5 -21t62.5 -60t24 -89v-106h170v157q0 278 -273 278q-75 0 -203 -23l-2 38q4 2 38.5 10.5t81 15t92.5 6.5q134 0 226.5 -68.5t92.5 -253.5v-160h103zM205 243.5q-34 -32.5 -34 -78.5v-119h234
v118q0 47 -33 79.5t-83 32.5t-84 -32.5z" />
    <glyph glyph-name="uniFBAF" unicode="&#x6d2;" horiz-adv-x="710" arabic-form="final" 
d="M103 0q-9 -22 -9 -61q0 -67 52 -102.5t169 -35.5h307v-46h-332q-139 0 -194 48t-55 140q0 32 6 60.5t13 42.5h650v-46h-607z" />
    <glyph glyph-name="uniFBB1" unicode="&#x6d3;" horiz-adv-x="710" arabic-form="final" 
d="M41 0zM103 0q-9 -22 -9 -61q0 -67 52 -102.5t169 -35.5h307v-46h-332q-139 0 -194 48t-55 140q0 32 6 60.5t13 42.5h650v-46h-607zM276 203l-197 -38l-8 25l48 13q-31 27 -31 67q0 35 24 60.5t63 25.5q23 0 42.5 -8.5t28.5 -15.5l-8 -29q-6 5 -19 10t-29 5
q-28 0 -45 -17.5t-17 -41.5q0 -28 23 -47l116 31z" />
    <glyph glyph-name="uniFBE8" unicode="&#x649;" horiz-adv-x="286" arabic-form="initial" 
d="M0 0zM201 500v-500h-201v46h149v454h52z" />
    <glyph glyph-name="uniFBE9" unicode="&#x649;" horiz-adv-x="350" arabic-form="medial" 
d="M0 0zM350 46v-46h-350v46h149v454h52v-454h149z" />
    <glyph glyph-name="uniFBFD" unicode="&#x6cc;" horiz-adv-x="893" arabic-form="final" 
d="M40 0zM893 0h-133l1 -24q0 -61 -23 -112t-71.5 -81.5t-120.5 -30.5h-256q-76 0 -132.5 27t-87 73.5t-30.5 101.5q0 27 7.5 91t18.5 139l50 -8q-24 -165 -24 -206q0 -52 27 -91t71.5 -60t94.5 -21l258 -1q53 0 91 25t57 65t19 84q0 11 -2 29h-33q-73 0 -109 22l21 36
q14 -8 35.5 -10t58.5 -2h212v-46z" />
    <glyph glyph-name="uniFBFE" unicode="&#x6cc;" horiz-adv-x="286" arabic-form="initial" 
d="M0 0zM201 500v-500h-201v46h149v454h52zM85 -80h64v-66h-64v66zM198 -80h64v-66h-64v66z" />
    <glyph glyph-name="uniFBFF" unicode="&#x6cc;" horiz-adv-x="350" arabic-form="medial" 
d="M0 0zM350 46v-46h-350v46h149v454h52v-454h149zM86 -80h64v-66h-64v66zM199 -80h64v-66h-64v66z" />
    <glyph glyph-name="uniFC64" unicode="&#xfc64;" horiz-adv-x="717" arabic-form="final" 
d="M40 0zM717 46v-46h-183v456q-146 -4 -255 -22v-452q0 -116 -40.5 -173.5t-124.5 -57.5q-14 0 -74 5v45q58 -4 76 -4q55 0 82.5 44.5t27.5 122.5v501q43 13 134 24t227 11v-454h130zM655 629l-197 -38l-8 25l48 13q-31 27 -31 67q0 35 24 60.5t63 25.5q23 0 42.5 -8.5
t28.5 -15.5l-8 -29q-6 5 -19 10t-29 5q-28 0 -45 -17.5t-17 -41.5q0 -28 23 -47l116 31z" />
    <glyph glyph-name="uniFC65" unicode="&#xfc65;" horiz-adv-x="717" arabic-form="final" 
d="M40 0zM717 46v-46h-183v456q-146 -4 -255 -22v-452q0 -116 -40.5 -173.5t-124.5 -57.5q-14 0 -74 5v45q58 -4 76 -4q55 0 82.5 44.5t27.5 122.5v501q43 13 134 24t227 11v-454h130zM655 629l-197 -38l-8 25l48 13q-31 27 -31 67q0 35 24 60.5t63 25.5q23 0 42.5 -8.5
t28.5 -15.5l-8 -29q-6 5 -19 10t-29 5q-28 0 -45 -17.5t-17 -41.5q0 -28 23 -47l116 31zM223 657h55v-64h-55v64z" />
    <glyph glyph-name="uniFC67" unicode="&#xfc67;" horiz-adv-x="946" arabic-form="final" 
d="M40 0zM320 500h-55v64h55v-64zM946 46v-46h-182v455q-146 -3 -234 -17v-489q0 -68 -34.5 -112.5t-89.5 -64.5t-116 -20q-68 0 -125.5 24.5t-91 70.5t-33.5 107q0 39 13 134t29 184l51 -3q-39 -252 -39 -314q0 -47 26 -82.5t70.5 -55t98.5 -19.5q78 0 133.5 39.5
t55.5 118.5v518q139 26 339 26v-454h129zM886 629l-197 -38l-8 25l48 13q-31 27 -31 67q0 35 24 60.5t63 25.5q23 0 42.5 -8.5t28.5 -15.5l-8 -29q-6 5 -19 10t-29 5q-28 0 -45 -17.5t-17 -41.5q0 -28 23 -47l116 31z" />
    <glyph glyph-name="uniFC68" unicode="&#xfc68;" horiz-adv-x="1058" arabic-form="final" 
d="M40 0zM1058 46v-46h-182v455h-331q-84 0 -126 -33t-42 -98q0 -52 12.5 -76.5t49.5 -39.5t123 -32q107 -21 153 -67t46 -133q0 -61 -23 -112t-71.5 -81.5t-120.5 -30.5h-256q-76 0 -132.5 27t-87 73.5t-30.5 101.5q0 27 7.5 91t18.5 139l50 -8q-24 -165 -24 -206
q0 -52 27 -91t71.5 -60t94.5 -21l258 -1q53 0 91 25t57 65t19 84q0 45 -13.5 74t-50 49t-104.5 33q-84 16 -129.5 36t-66.5 56.5t-21 101.5q0 90 53.5 134.5t165.5 44.5h384v-454h130zM997 629l-197 -38l-8 25l48 13q-31 27 -31 67q0 35 24 60.5t63 25.5q23 0 42.5 -8.5
t28.5 -15.5l-8 -29q-6 5 -19 10t-29 5q-28 0 -45 -17.5t-17 -41.5q0 -28 23 -47l116 31z" />
    <glyph glyph-name="uniFC69" unicode="&#xfc69;" horiz-adv-x="1058" arabic-form="final" 
d="M40 0zM1058 46v-46h-182v455h-331q-84 0 -126 -33t-42 -98q0 -52 12.5 -76.5t49.5 -39.5t123 -32q107 -21 153 -67t46 -133q0 -61 -23 -112t-71.5 -81.5t-120.5 -30.5h-256q-76 0 -132.5 27t-87 73.5t-30.5 101.5q0 27 7.5 91t18.5 139l50 -8q-24 -165 -24 -206
q0 -52 27 -91t71.5 -60t94.5 -21l258 -1q53 0 91 25t57 65t19 84q0 45 -13.5 74t-50 49t-104.5 33q-84 16 -129.5 36t-66.5 56.5t-21 101.5q0 90 53.5 134.5t165.5 44.5h384v-454h130zM997 629l-197 -38l-8 25l48 13q-31 27 -31 67q0 35 24 60.5t63 25.5q23 0 42.5 -8.5
t28.5 -15.5l-8 -29q-6 5 -19 10t-29 5q-28 0 -45 -17.5t-17 -41.5q0 -28 23 -47l116 31zM306 -320h64v-66h-64v66zM419 -320h64v-66h-64v66z" />
    <glyph glyph-name="uniFC6A" unicode="&#xfc6a;" horiz-adv-x="717" arabic-form="final" 
d="M40 0zM717 46v-46h-183v456q-146 -4 -255 -22v-452q0 -116 -40.5 -173.5t-124.5 -57.5q-14 0 -74 5v45q58 -4 76 -4q55 0 82.5 44.5t27.5 122.5v501q43 13 134 24t227 11v-454h130zM528 -80h55v-65h-55v65z" />
    <glyph glyph-name="uniFC6B" unicode="&#xfc6b;" horiz-adv-x="717" arabic-form="final" 
d="M40 0zM717 46v-46h-183v456q-146 -4 -255 -22v-452q0 -116 -40.5 -173.5t-124.5 -57.5q-14 0 -74 5v45q58 -4 76 -4q55 0 82.5 44.5t27.5 122.5v501q43 13 134 24t227 11v-454h130zM528 -80h55v-65h-55v65zM223 657h55v-64h-55v64z" />
    <glyph glyph-name="uniFC6D" unicode="&#xfc6d;" horiz-adv-x="946" arabic-form="final" 
d="M40 0zM320 500h-55v64h55v-64zM946 46v-46h-182v455q-146 -3 -234 -17v-489q0 -68 -34.5 -112.5t-89.5 -64.5t-116 -20q-68 0 -125.5 24.5t-91 70.5t-33.5 107q0 39 13 134t29 184l51 -3q-39 -252 -39 -314q0 -47 26 -82.5t70.5 -55t98.5 -19.5q78 0 133.5 39.5
t55.5 118.5v518q139 26 339 26v-454h129zM759 -80h55v-65h-55v65z" />
    <glyph glyph-name="uniFC6E" unicode="&#xfc6e;" horiz-adv-x="1058" arabic-form="final" 
d="M40 0zM1058 46v-46h-182v455h-331q-84 0 -126 -33t-42 -98q0 -52 12.5 -76.5t49.5 -39.5t123 -32q107 -21 153 -67t46 -133q0 -61 -23 -112t-71.5 -81.5t-120.5 -30.5h-256q-76 0 -132.5 27t-87 73.5t-30.5 101.5q0 27 7.5 91t18.5 139l50 -8q-24 -165 -24 -206
q0 -52 27 -91t71.5 -60t94.5 -21l258 -1q53 0 91 25t57 65t19 84q0 45 -13.5 74t-50 49t-104.5 33q-84 16 -129.5 36t-66.5 56.5t-21 101.5q0 90 53.5 134.5t165.5 44.5h384v-454h130zM870 -80h55v-65h-55v65z" />
    <glyph glyph-name="uniFC6F" unicode="&#xfc6f;" horiz-adv-x="1058" arabic-form="final" 
d="M40 0zM1058 46v-46h-182v455h-331q-84 0 -126 -33t-42 -98q0 -52 12.5 -76.5t49.5 -39.5t123 -32q107 -21 153 -67t46 -133q0 -61 -23 -112t-71.5 -81.5t-120.5 -30.5h-256q-76 0 -132.5 27t-87 73.5t-30.5 101.5q0 27 7.5 91t18.5 139l50 -8q-24 -165 -24 -206
q0 -52 27 -91t71.5 -60t94.5 -21l258 -1q53 0 91 25t57 65t19 84q0 45 -13.5 74t-50 49t-104.5 33q-84 16 -129.5 36t-66.5 56.5t-21 101.5q0 90 53.5 134.5t165.5 44.5h384v-454h130zM870 -80h55v-65h-55v65zM306 -320h64v-66h-64v66zM419 -320h64v-66h-64v66z" />
    <glyph glyph-name="uniFC70" unicode="&#xfc70;" horiz-adv-x="717" arabic-form="final" 
d="M40 0zM717 46v-46h-183v456q-146 -4 -255 -22v-452q0 -116 -40.5 -173.5t-124.5 -57.5q-14 0 -74 5v45q58 -4 76 -4q55 0 82.5 44.5t27.5 122.5v501q43 13 134 24t227 11v-454h130zM468 659h64v-66h-64v66zM581 659h64v-66h-64v66z" />
    <glyph glyph-name="uniFC71" unicode="&#xfc71;" horiz-adv-x="717" arabic-form="final" 
d="M40 0zM717 46v-46h-183v456q-146 -4 -255 -22v-452q0 -116 -40.5 -173.5t-124.5 -57.5q-14 0 -74 5v45q58 -4 76 -4q55 0 82.5 44.5t27.5 122.5v501q43 13 134 24t227 11v-454h130zM468 659h64v-66h-64v66zM581 659h64v-66h-64v66zM223 657h55v-64h-55v64z" />
    <glyph glyph-name="uniFC73" unicode="&#xfc73;" horiz-adv-x="946" arabic-form="final" 
d="M40 0zM320 500h-55v64h55v-64zM946 46v-46h-182v455q-146 -3 -234 -17v-489q0 -68 -34.5 -112.5t-89.5 -64.5t-116 -20q-68 0 -125.5 24.5t-91 70.5t-33.5 107q0 39 13 134t29 184l51 -3q-39 -252 -39 -314q0 -47 26 -82.5t70.5 -55t98.5 -19.5q78 0 133.5 39.5
t55.5 118.5v518q139 26 339 26v-454h129zM699 659h64v-66h-64v66zM812 659h64v-66h-64v66z" />
    <glyph glyph-name="uniFC74" unicode="&#xfc74;" horiz-adv-x="1058" arabic-form="final" 
d="M40 0zM1058 46v-46h-182v455h-331q-84 0 -126 -33t-42 -98q0 -52 12.5 -76.5t49.5 -39.5t123 -32q107 -21 153 -67t46 -133q0 -61 -23 -112t-71.5 -81.5t-120.5 -30.5h-256q-76 0 -132.5 27t-87 73.5t-30.5 101.5q0 27 7.5 91t18.5 139l50 -8q-24 -165 -24 -206
q0 -52 27 -91t71.5 -60t94.5 -21l258 -1q53 0 91 25t57 65t19 84q0 45 -13.5 74t-50 49t-104.5 33q-84 16 -129.5 36t-66.5 56.5t-21 101.5q0 90 53.5 134.5t165.5 44.5h384v-454h130zM810 659h64v-66h-64v66zM923 659h64v-66h-64v66z" />
    <glyph glyph-name="uniFC75" unicode="&#xfc75;" horiz-adv-x="1058" arabic-form="final" 
d="M40 0zM1058 46v-46h-182v455h-331q-84 0 -126 -33t-42 -98q0 -52 12.5 -76.5t49.5 -39.5t123 -32q107 -21 153 -67t46 -133q0 -61 -23 -112t-71.5 -81.5t-120.5 -30.5h-256q-76 0 -132.5 27t-87 73.5t-30.5 101.5q0 27 7.5 91t18.5 139l50 -8q-24 -165 -24 -206
q0 -52 27 -91t71.5 -60t94.5 -21l258 -1q53 0 91 25t57 65t19 84q0 45 -13.5 74t-50 49t-104.5 33q-84 16 -129.5 36t-66.5 56.5t-21 101.5q0 90 53.5 134.5t165.5 44.5h384v-454h130zM810 659h64v-66h-64v66zM923 659h64v-66h-64v66zM306 -320h64v-66h-64v66zM419 -320h64
v-66h-64v66z" />
    <glyph glyph-name="uniFC76" unicode="&#xfc76;" horiz-adv-x="717" arabic-form="final" 
d="M40 0zM717 46v-46h-183v456q-146 -4 -255 -22v-452q0 -116 -40.5 -173.5t-124.5 -57.5q-14 0 -74 5v45q58 -4 76 -4q55 0 82.5 44.5t27.5 122.5v501q43 13 134 24t227 11v-454h130zM521 776h66v-68h-66v68zM466 661h64v-68h-64v68zM579 661h64v-68h-64v68z" />
    <glyph glyph-name="uniFC77" unicode="&#xfc77;" horiz-adv-x="717" arabic-form="final" 
d="M40 0zM717 46v-46h-183v456q-146 -4 -255 -22v-452q0 -116 -40.5 -173.5t-124.5 -57.5q-14 0 -74 5v45q58 -4 76 -4q55 0 82.5 44.5t27.5 122.5v501q43 13 134 24t227 11v-454h130zM521 776h66v-68h-66v68zM466 661h64v-68h-64v68zM579 661h64v-68h-64v68zM223 657h55
v-64h-55v64z" />
    <glyph glyph-name="uniFC79" unicode="&#xfc79;" horiz-adv-x="946" arabic-form="final" 
d="M40 0zM320 500h-55v64h55v-64zM946 46v-46h-182v455q-146 -3 -234 -17v-489q0 -68 -34.5 -112.5t-89.5 -64.5t-116 -20q-68 0 -125.5 24.5t-91 70.5t-33.5 107q0 39 13 134t29 184l51 -3q-39 -252 -39 -314q0 -47 26 -82.5t70.5 -55t98.5 -19.5q78 0 133.5 39.5
t55.5 118.5v518q139 26 339 26v-454h129zM752 776h66v-68h-66v68zM697 661h64v-68h-64v68zM810 661h64v-68h-64v68z" />
    <glyph glyph-name="uniFC7A" unicode="&#xfc7a;" horiz-adv-x="1058" arabic-form="final" 
d="M40 0zM1058 46v-46h-182v455h-331q-84 0 -126 -33t-42 -98q0 -52 12.5 -76.5t49.5 -39.5t123 -32q107 -21 153 -67t46 -133q0 -61 -23 -112t-71.5 -81.5t-120.5 -30.5h-256q-76 0 -132.5 27t-87 73.5t-30.5 101.5q0 27 7.5 91t18.5 139l50 -8q-24 -165 -24 -206
q0 -52 27 -91t71.5 -60t94.5 -21l258 -1q53 0 91 25t57 65t19 84q0 45 -13.5 74t-50 49t-104.5 33q-84 16 -129.5 36t-66.5 56.5t-21 101.5q0 90 53.5 134.5t165.5 44.5h384v-454h130zM863 776h66v-68h-66v68zM808 661h64v-68h-64v68zM921 661h64v-68h-64v68z" />
    <glyph glyph-name="uniFC7B" unicode="&#xfc7b;" horiz-adv-x="1058" arabic-form="final" 
d="M40 0zM1058 46v-46h-182v455h-331q-84 0 -126 -33t-42 -98q0 -52 12.5 -76.5t49.5 -39.5t123 -32q107 -21 153 -67t46 -133q0 -61 -23 -112t-71.5 -81.5t-120.5 -30.5h-256q-76 0 -132.5 27t-87 73.5t-30.5 101.5q0 27 7.5 91t18.5 139l50 -8q-24 -165 -24 -206
q0 -52 27 -91t71.5 -60t94.5 -21l258 -1q53 0 91 25t57 65t19 84q0 45 -13.5 74t-50 49t-104.5 33q-84 16 -129.5 36t-66.5 56.5t-21 101.5q0 90 53.5 134.5t165.5 44.5h384v-454h130zM863 776h66v-68h-66v68zM808 661h64v-68h-64v68zM921 661h64v-68h-64v68zM306 -320h64
v-66h-64v66zM419 -320h64v-66h-64v66z" />
    <glyph glyph-name="uniFC8A" unicode="&#xfc8a;" horiz-adv-x="717" arabic-form="final" 
d="M40 0zM717 46v-46h-183v456q-146 -4 -255 -22v-452q0 -116 -40.5 -173.5t-124.5 -57.5q-14 0 -74 5v45q58 -4 76 -4q55 0 82.5 44.5t27.5 122.5v501q43 13 134 24t227 11v-454h130zM528 657h55v-64h-55v64z" />
    <glyph glyph-name="uniFC8B" unicode="&#xfc8b;" horiz-adv-x="717" arabic-form="final" 
d="M40 0zM717 46v-46h-183v456q-146 -4 -255 -22v-452q0 -116 -40.5 -173.5t-124.5 -57.5q-14 0 -74 5v45q58 -4 76 -4q55 0 82.5 44.5t27.5 122.5v501q43 13 134 24t227 11v-454h130zM528 657h55v-64h-55v64zM223 657h55v-64h-55v64z" />
    <glyph glyph-name="uniFC8D" unicode="&#xfc8d;" horiz-adv-x="946" arabic-form="final" 
d="M40 0zM320 500h-55v64h55v-64zM946 46v-46h-182v455q-146 -3 -234 -17v-489q0 -68 -34.5 -112.5t-89.5 -64.5t-116 -20q-68 0 -125.5 24.5t-91 70.5t-33.5 107q0 39 13 134t29 184l51 -3q-39 -252 -39 -314q0 -47 26 -82.5t70.5 -55t98.5 -19.5q78 0 133.5 39.5
t55.5 118.5v518q139 26 339 26v-454h129zM759 657h55v-64h-55v64z" />
    <glyph glyph-name="uniFC8E" unicode="&#xfc8e;" horiz-adv-x="1058" arabic-form="final" 
d="M40 0zM1058 46v-46h-182v455h-331q-84 0 -126 -33t-42 -98q0 -52 12.5 -76.5t49.5 -39.5t123 -32q107 -21 153 -67t46 -133q0 -61 -23 -112t-71.5 -81.5t-120.5 -30.5h-256q-76 0 -132.5 27t-87 73.5t-30.5 101.5q0 27 7.5 91t18.5 139l50 -8q-24 -165 -24 -206
q0 -52 27 -91t71.5 -60t94.5 -21l258 -1q53 0 91 25t57 65t19 84q0 45 -13.5 74t-50 49t-104.5 33q-84 16 -129.5 36t-66.5 56.5t-21 101.5q0 90 53.5 134.5t165.5 44.5h384v-454h130zM870 657h55v-64h-55v64z" />
    <glyph glyph-name="uniFC8F" unicode="&#xfc8f;" horiz-adv-x="1058" arabic-form="final" 
d="M40 0zM1058 46v-46h-182v455h-331q-84 0 -126 -33t-42 -98q0 -52 12.5 -76.5t49.5 -39.5t123 -32q107 -21 153 -67t46 -133q0 -61 -23 -112t-71.5 -81.5t-120.5 -30.5h-256q-76 0 -132.5 27t-87 73.5t-30.5 101.5q0 27 7.5 91t18.5 139l50 -8q-24 -165 -24 -206
q0 -52 27 -91t71.5 -60t94.5 -21l258 -1q53 0 91 25t57 65t19 84q0 45 -13.5 74t-50 49t-104.5 33q-84 16 -129.5 36t-66.5 56.5t-21 101.5q0 90 53.5 134.5t165.5 44.5h384v-454h130zM870 657h55v-64h-55v64zM306 -320h64v-66h-64v66zM419 -320h64v-66h-64v66z" />
    <glyph glyph-name="uniFC91" unicode="&#xfc91;" horiz-adv-x="717" arabic-form="final" 
d="M40 0zM717 46v-46h-183v456q-146 -4 -255 -22v-452q0 -116 -40.5 -173.5t-124.5 -57.5q-14 0 -74 5v45q58 -4 76 -4q55 0 82.5 44.5t27.5 122.5v501q43 13 134 24t227 11v-454h130zM466 -80h64v-66h-64v66zM579 -80h64v-66h-64v66z" />
    <glyph glyph-name="uniFC92" unicode="&#xfc92;" horiz-adv-x="717" arabic-form="final" 
d="M40 0zM717 46v-46h-183v456q-146 -4 -255 -22v-452q0 -116 -40.5 -173.5t-124.5 -57.5q-14 0 -74 5v45q58 -4 76 -4q55 0 82.5 44.5t27.5 122.5v501q43 13 134 24t227 11v-454h130zM466 -80h64v-66h-64v66zM579 -80h64v-66h-64v66zM223 657h55v-64h-55v64z" />
    <glyph glyph-name="uniFC94" unicode="&#xfc94;" horiz-adv-x="946" arabic-form="final" 
d="M40 0zM320 500h-55v64h55v-64zM946 46v-46h-182v455q-146 -3 -234 -17v-489q0 -68 -34.5 -112.5t-89.5 -64.5t-116 -20q-68 0 -125.5 24.5t-91 70.5t-33.5 107q0 39 13 134t29 184l51 -3q-39 -252 -39 -314q0 -47 26 -82.5t70.5 -55t98.5 -19.5q78 0 133.5 39.5
t55.5 118.5v518q139 26 339 26v-454h129zM697 -80h64v-66h-64v66zM810 -80h64v-66h-64v66z" />
    <glyph glyph-name="uniFCFB" unicode="&#xfcfb;" horiz-adv-x="1519" arabic-form="isolated" 
d="M1435 380.5q10 -61.5 10 -102.5v-278h-178q-56 0 -110 44q-33 -44 -93 -44h-188v455h-331q-84 0 -126 -33t-42 -98q0 -52 12.5 -76.5t49.5 -39.5t123 -32q107 -21 153 -67t46 -133q0 -61 -23 -112t-71.5 -81.5t-120.5 -30.5h-256q-76 0 -132.5 27t-87 73.5t-30.5 101.5
q0 27 7.5 91t18.5 139l50 -8q-24 -165 -24 -206q0 -52 27 -91t71.5 -60t94.5 -21l258 -1q53 0 91 25t57 65t19 84q0 45 -13.5 74t-50 49t-104.5 33q-84 16 -129.5 36t-66.5 56.5t-21 101.5q0 90 53.5 134.5t165.5 44.5h384v-454h122q50 0 70 43t20 109v252h53v-251
q0 -67 -15 -113q16 -15 43 -27.5t53 -12.5h118v252q0 50 -18 178l-3 21l40 3q14 -58 24 -119.5z" />
    <glyph glyph-name="uniFCFC" unicode="&#xfcfc;" horiz-adv-x="1519" arabic-form="isolated" 
d="M40 0zM1435 380.5q10 -61.5 10 -102.5v-278h-178q-56 0 -110 44q-33 -44 -93 -44h-188v455h-331q-84 0 -126 -33t-42 -98q0 -52 12.5 -76.5t49.5 -39.5t123 -32q107 -21 153 -67t46 -133q0 -61 -23 -112t-71.5 -81.5t-120.5 -30.5h-256q-76 0 -132.5 27t-87 73.5
t-30.5 101.5q0 27 7.5 91t18.5 139l50 -8q-24 -165 -24 -206q0 -52 27 -91t71.5 -60t94.5 -21l258 -1q53 0 91 25t57 65t19 84q0 45 -13.5 74t-50 49t-104.5 33q-84 16 -129.5 36t-66.5 56.5t-21 101.5q0 90 53.5 134.5t165.5 44.5h384v-454h122q50 0 70 43t20 109v252h53
v-251q0 -67 -15 -113q16 -15 43 -27.5t53 -12.5h118v252q0 50 -18 178l-3 21l40 3q14 -58 24 -119.5zM306 -320h64v-66h-64v66zM419 -320h64v-66h-64v66z" />
    <glyph glyph-name="uniFCFD" unicode="&#xfcfd;" horiz-adv-x="1519" arabic-form="isolated" 
d="M40 0zM1435 380.5q10 -61.5 10 -102.5v-278h-178q-56 0 -110 44q-33 -44 -93 -44h-188v455h-331q-84 0 -126 -33t-42 -98q0 -52 12.5 -76.5t49.5 -39.5t123 -32q107 -21 153 -67t46 -133q0 -61 -23 -112t-71.5 -81.5t-120.5 -30.5h-256q-76 0 -132.5 27t-87 73.5
t-30.5 101.5q0 27 7.5 91t18.5 139l50 -8q-24 -165 -24 -206q0 -52 27 -91t71.5 -60t94.5 -21l258 -1q53 0 91 25t57 65t19 84q0 45 -13.5 74t-50 49t-104.5 33q-84 16 -129.5 36t-66.5 56.5t-21 101.5q0 90 53.5 134.5t165.5 44.5h384v-454h122q50 0 70 43t20 109v252h53
v-251q0 -67 -15 -113q16 -15 43 -27.5t53 -12.5h118v252q0 50 -18 178l-3 21l40 3q14 -58 24 -119.5zM1131 776h66v-68h-66v68zM1076 661h64v-68h-64v68zM1189 661h64v-68h-64v68z" />
    <glyph glyph-name="uniFCFE" unicode="&#xfcfe;" horiz-adv-x="1519" arabic-form="isolated" 
d="M40 0zM1435 380.5q10 -61.5 10 -102.5v-278h-178q-56 0 -110 44q-33 -44 -93 -44h-188v455h-331q-84 0 -126 -33t-42 -98q0 -52 12.5 -76.5t49.5 -39.5t123 -32q107 -21 153 -67t46 -133q0 -61 -23 -112t-71.5 -81.5t-120.5 -30.5h-256q-76 0 -132.5 27t-87 73.5
t-30.5 101.5q0 27 7.5 91t18.5 139l50 -8q-24 -165 -24 -206q0 -52 27 -91t71.5 -60t94.5 -21l258 -1q53 0 91 25t57 65t19 84q0 45 -13.5 74t-50 49t-104.5 33q-84 16 -129.5 36t-66.5 56.5t-21 101.5q0 90 53.5 134.5t165.5 44.5h384v-454h122q50 0 70 43t20 109v252h53
v-251q0 -67 -15 -113q16 -15 43 -27.5t53 -12.5h118v252q0 50 -18 178l-3 21l40 3q14 -58 24 -119.5zM1131 776h66v-68h-66v68zM1076 661h64v-68h-64v68zM1189 661h64v-68h-64v68zM306 -320h64v-66h-64v66zM419 -320h64v-66h-64v66z" />
    <glyph glyph-name="uniFD05" unicode="&#xfd05;" horiz-adv-x="1519" arabic-form="isolated" 
d="M1386.5 432.5q52.5 -77.5 52.5 -181.5v-251h-563v455h-331q-84 0 -126 -33t-42 -98q0 -52 12.5 -76.5t49.5 -39.5t123 -32q107 -21 153 -67t46 -133q0 -61 -23 -112t-71.5 -81.5t-120.5 -30.5h-256q-76 0 -132.5 27t-87 73.5t-30.5 101.5q0 27 7.5 91t18.5 139l50 -8
q-24 -165 -24 -206q0 -52 27 -91t71.5 -60t94.5 -21l258 -1q53 0 91 25t57 65t19 84q0 45 -13.5 74t-50 49t-104.5 33q-84 16 -129.5 36t-66.5 56.5t-21 101.5q0 90 53.5 134.5t165.5 44.5h384v-160q45 56 81.5 91t85.5 57t113 22q126 0 178.5 -77.5zM1099.5 436
q-50.5 -28 -84 -61.5t-70.5 -79.5q-5 -8 -17 -22v-227h459v201q0 93 -45 155t-132 62q-60 0 -110.5 -28z" />
    <glyph glyph-name="uniFD06" unicode="&#xfd06;" horiz-adv-x="1519" arabic-form="isolated" 
d="M40 0zM1386.5 432.5q52.5 -77.5 52.5 -181.5v-251h-563v455h-331q-84 0 -126 -33t-42 -98q0 -52 12.5 -76.5t49.5 -39.5t123 -32q107 -21 153 -67t46 -133q0 -61 -23 -112t-71.5 -81.5t-120.5 -30.5h-256q-76 0 -132.5 27t-87 73.5t-30.5 101.5q0 27 7.5 91t18.5 139
l50 -8q-24 -165 -24 -206q0 -52 27 -91t71.5 -60t94.5 -21l258 -1q53 0 91 25t57 65t19 84q0 45 -13.5 74t-50 49t-104.5 33q-84 16 -129.5 36t-66.5 56.5t-21 101.5q0 90 53.5 134.5t165.5 44.5h384v-160q45 56 81.5 91t85.5 57t113 22q126 0 178.5 -77.5zM1099.5 436
q-50.5 -28 -84 -61.5t-70.5 -79.5q-5 -8 -17 -22v-227h459v201q0 93 -45 155t-132 62q-60 0 -110.5 -28zM306 -320h64v-66h-64v66zM419 -320h64v-66h-64v66z" />
    <glyph glyph-name="uniFD07" unicode="&#xfd07;" horiz-adv-x="1519" arabic-form="isolated" 
d="M40 0zM1386.5 432.5q52.5 -77.5 52.5 -181.5v-251h-563v455h-331q-84 0 -126 -33t-42 -98q0 -52 12.5 -76.5t49.5 -39.5t123 -32q107 -21 153 -67t46 -133q0 -61 -23 -112t-71.5 -81.5t-120.5 -30.5h-256q-76 0 -132.5 27t-87 73.5t-30.5 101.5q0 27 7.5 91t18.5 139
l50 -8q-24 -165 -24 -206q0 -52 27 -91t71.5 -60t94.5 -21l258 -1q53 0 91 25t57 65t19 84q0 45 -13.5 74t-50 49t-104.5 33q-84 16 -129.5 36t-66.5 56.5t-21 101.5q0 90 53.5 134.5t165.5 44.5h384v-160q45 56 81.5 91t85.5 57t113 22q126 0 178.5 -77.5zM1099.5 436
q-50.5 -28 -84 -61.5t-70.5 -79.5q-5 -8 -17 -22v-227h459v201q0 93 -45 155t-132 62q-60 0 -110.5 -28zM1152 657h55v-64h-55v64z" />
    <glyph glyph-name="uniFD08" unicode="&#xfd08;" horiz-adv-x="1519" arabic-form="isolated" 
d="M40 0zM1386.5 432.5q52.5 -77.5 52.5 -181.5v-251h-563v455h-331q-84 0 -126 -33t-42 -98q0 -52 12.5 -76.5t49.5 -39.5t123 -32q107 -21 153 -67t46 -133q0 -61 -23 -112t-71.5 -81.5t-120.5 -30.5h-256q-76 0 -132.5 27t-87 73.5t-30.5 101.5q0 27 7.5 91t18.5 139
l50 -8q-24 -165 -24 -206q0 -52 27 -91t71.5 -60t94.5 -21l258 -1q53 0 91 25t57 65t19 84q0 45 -13.5 74t-50 49t-104.5 33q-84 16 -129.5 36t-66.5 56.5t-21 101.5q0 90 53.5 134.5t165.5 44.5h384v-160q45 56 81.5 91t85.5 57t113 22q126 0 178.5 -77.5zM1099.5 436
q-50.5 -28 -84 -61.5t-70.5 -79.5q-5 -8 -17 -22v-227h459v201q0 93 -45 155t-132 62q-60 0 -110.5 -28zM1152 657h55v-64h-55v64zM306 -320h64v-66h-64v66zM419 -320h64v-66h-64v66z" />
    <glyph glyph-name="uniFD0D" unicode="&#xfd0d;" horiz-adv-x="1188" arabic-form="isolated" 
d="M40 0zM1103 382q10 -63 10 -104v-278h-177q-27 0 -53.5 10t-57.5 35q-31 -45 -92 -45h-189v455q-158 -3 -265 -21v-452q0 -116 -40.5 -173.5t-124.5 -57.5q-14 0 -74 5v45q58 -4 76 -4q55 0 82.5 44.5t27.5 122.5v501q42 12 138 23.5t233 11.5v-454h122q50 0 70 43
t20 109v252h52v-251q0 -66 -15 -112q16 -16 43.5 -28.5t53.5 -12.5h118v252q0 39 -7.5 100t-9.5 74q-2 8 -4 26l40 2q13 -55 23 -118zM800 776h66v-68h-66v68zM745 661h64v-68h-64v68zM858 661h64v-68h-64v68z" />
    <glyph glyph-name="uniFD0E" unicode="&#xfd0e;" horiz-adv-x="1188" arabic-form="isolated" 
d="M1103 382q10 -63 10 -104v-278h-177q-27 0 -53.5 10t-57.5 35q-31 -45 -92 -45h-189v455q-158 -3 -265 -21v-452q0 -116 -40.5 -173.5t-124.5 -57.5q-14 0 -74 5v45q58 -4 76 -4q55 0 82.5 44.5t27.5 122.5v501q42 12 138 23.5t233 11.5v-454h122q50 0 70 43t20 109v252
h52v-251q0 -66 -15 -112q16 -16 43.5 -28.5t53.5 -12.5h118v252q0 39 -7.5 100t-9.5 74q-2 8 -4 26l40 2q13 -55 23 -118z" />
    <glyph glyph-name="uniFD0F" unicode="&#xfd0f;" horiz-adv-x="1188" arabic-form="isolated" 
d="M1055.5 432.5q52.5 -77.5 52.5 -181.5v-251h-564v455q-160 -3 -265 -21v-452q0 -116 -40.5 -173.5t-124.5 -57.5q-14 0 -74 5v45q58 -4 76 -4q55 0 82.5 44.5t27.5 122.5v501q42 12 138 23.5t233 11.5v-160q45 56 81.5 91t85.5 57t113 22q126 0 178.5 -77.5zM768.5 436.5
q-50.5 -27.5 -84.5 -61.5t-69 -79l-18 -22v-228h458v201q0 93 -44.5 155t-131.5 62q-60 0 -110.5 -27.5z" />
    <glyph glyph-name="uniFD10" unicode="&#xfd10;" horiz-adv-x="1188" arabic-form="isolated" 
d="M40 0zM1055.5 432.5q52.5 -77.5 52.5 -181.5v-251h-564v455q-160 -3 -265 -21v-452q0 -116 -40.5 -173.5t-124.5 -57.5q-14 0 -74 5v45q58 -4 76 -4q55 0 82.5 44.5t27.5 122.5v501q42 12 138 23.5t233 11.5v-160q45 56 81.5 91t85.5 57t113 22q126 0 178.5 -77.5z
M768.5 436.5q-50.5 -27.5 -84.5 -61.5t-69 -79l-18 -22v-228h458v201q0 93 -44.5 155t-131.5 62q-60 0 -110.5 -27.5zM801 657h55v-64h-55v64z" />
    <glyph glyph-name="uniFD17" unicode="&#xfd17;" horiz-adv-x="1560" arabic-form="final" 
d="M1560 46v-46h-293q-56 0 -110 44q-33 -44 -93 -44h-188v455h-331q-84 0 -126 -33t-42 -98q0 -52 12.5 -76.5t49.5 -39.5t123 -32q107 -21 153 -67t46 -133q0 -61 -23 -112t-71.5 -81.5t-120.5 -30.5h-256q-76 0 -132.5 27t-87 73.5t-30.5 101.5q0 27 7.5 91t18.5 139
l50 -8q-24 -165 -24 -206q0 -52 27 -91t71.5 -60t94.5 -21l258 -1q53 0 91 25t57 65t19 84q0 45 -13.5 74t-50 49t-104.5 33q-84 16 -129.5 36t-66.5 56.5t-21 101.5q0 90 53.5 134.5t165.5 44.5h384v-454h122q50 0 70 43t20 109v252h53v-251q0 -67 -15 -113
q16 -15 43 -27.5t53 -12.5h118v252q0 50 -18 178l-3 21l40 3q14 -58 24 -119.5t10 -102.5v-232h115z" />
    <glyph glyph-name="uniFD18" unicode="&#xfd18;" horiz-adv-x="1560" arabic-form="final" 
d="M40 0zM1560 46v-46h-293q-56 0 -110 44q-33 -44 -93 -44h-188v455h-331q-84 0 -126 -33t-42 -98q0 -52 12.5 -76.5t49.5 -39.5t123 -32q107 -21 153 -67t46 -133q0 -61 -23 -112t-71.5 -81.5t-120.5 -30.5h-256q-76 0 -132.5 27t-87 73.5t-30.5 101.5q0 27 7.5 91
t18.5 139l50 -8q-24 -165 -24 -206q0 -52 27 -91t71.5 -60t94.5 -21l258 -1q53 0 91 25t57 65t19 84q0 45 -13.5 74t-50 49t-104.5 33q-84 16 -129.5 36t-66.5 56.5t-21 101.5q0 90 53.5 134.5t165.5 44.5h384v-454h122q50 0 70 43t20 109v252h53v-251q0 -67 -15 -113
q16 -15 43 -27.5t53 -12.5h118v252q0 50 -18 178l-3 21l40 3q14 -58 24 -119.5t10 -102.5v-232h115zM306 -320h64v-66h-64v66zM419 -320h64v-66h-64v66z" />
    <glyph glyph-name="uniFD19" unicode="&#xfd19;" horiz-adv-x="1560" arabic-form="final" 
d="M40 0zM1560 46v-46h-293q-56 0 -110 44q-33 -44 -93 -44h-188v455h-331q-84 0 -126 -33t-42 -98q0 -52 12.5 -76.5t49.5 -39.5t123 -32q107 -21 153 -67t46 -133q0 -61 -23 -112t-71.5 -81.5t-120.5 -30.5h-256q-76 0 -132.5 27t-87 73.5t-30.5 101.5q0 27 7.5 91
t18.5 139l50 -8q-24 -165 -24 -206q0 -52 27 -91t71.5 -60t94.5 -21l258 -1q53 0 91 25t57 65t19 84q0 45 -13.5 74t-50 49t-104.5 33q-84 16 -129.5 36t-66.5 56.5t-21 101.5q0 90 53.5 134.5t165.5 44.5h384v-454h122q50 0 70 43t20 109v252h53v-251q0 -67 -15 -113
q16 -15 43 -27.5t53 -12.5h118v252q0 50 -18 178l-3 21l40 3q14 -58 24 -119.5t10 -102.5v-232h115zM1131 805h66v-68h-66v68zM1076 690h64v-68h-64v68zM1189 690h64v-68h-64v68z" />
    <glyph glyph-name="uniFD1A" unicode="&#xfd1a;" horiz-adv-x="1560" arabic-form="final" 
d="M40 0zM1560 46v-46h-293q-56 0 -110 44q-33 -44 -93 -44h-188v455h-331q-84 0 -126 -33t-42 -98q0 -52 12.5 -76.5t49.5 -39.5t123 -32q107 -21 153 -67t46 -133q0 -61 -23 -112t-71.5 -81.5t-120.5 -30.5h-256q-76 0 -132.5 27t-87 73.5t-30.5 101.5q0 27 7.5 91
t18.5 139l50 -8q-24 -165 -24 -206q0 -52 27 -91t71.5 -60t94.5 -21l258 -1q53 0 91 25t57 65t19 84q0 45 -13.5 74t-50 49t-104.5 33q-84 16 -129.5 36t-66.5 56.5t-21 101.5q0 90 53.5 134.5t165.5 44.5h384v-454h122q50 0 70 43t20 109v252h53v-251q0 -67 -15 -113
q16 -15 43 -27.5t53 -12.5h118v252q0 50 -18 178l-3 21l40 3q14 -58 24 -119.5t10 -102.5v-232h115zM1131 805h66v-68h-66v68zM1076 690h64v-68h-64v68zM1189 690h64v-68h-64v68zM306 -320h64v-66h-64v66zM419 -320h64v-66h-64v66z" />
    <glyph glyph-name="uniFD21" unicode="&#xfd21;" horiz-adv-x="1564" arabic-form="final" 
d="M1564 46v-46h-688v455h-331q-84 0 -126 -33t-42 -98q0 -52 12.5 -76.5t49.5 -39.5t123 -32q107 -21 153 -67t46 -133q0 -61 -23 -112t-71.5 -81.5t-120.5 -30.5h-256q-76 0 -132.5 27t-87 73.5t-30.5 101.5q0 27 7.5 91t18.5 139l50 -8q-24 -165 -24 -206q0 -52 27 -91
t71.5 -60t94.5 -21l258 -1q53 0 91 25t57 65t19 84q0 45 -13.5 74t-50 49t-104.5 33q-84 16 -129.5 36t-66.5 56.5t-21 101.5q0 90 53.5 134.5t165.5 44.5h384v-160q45 56 81.5 91t85.5 57t113 22q126 0 178.5 -77.5t52.5 -181.5v-205h125zM1099.5 436q-50.5 -28 -84 -61.5
t-70.5 -79.5q-5 -8 -17 -22v-227h459v201q0 93 -45 155t-132 62q-60 0 -110.5 -28z" />
    <glyph glyph-name="uniFD22" unicode="&#xfd22;" horiz-adv-x="1564" arabic-form="final" 
d="M40 0zM1564 46v-46h-688v455h-331q-84 0 -126 -33t-42 -98q0 -52 12.5 -76.5t49.5 -39.5t123 -32q107 -21 153 -67t46 -133q0 -61 -23 -112t-71.5 -81.5t-120.5 -30.5h-256q-76 0 -132.5 27t-87 73.5t-30.5 101.5q0 27 7.5 91t18.5 139l50 -8q-24 -165 -24 -206
q0 -52 27 -91t71.5 -60t94.5 -21l258 -1q53 0 91 25t57 65t19 84q0 45 -13.5 74t-50 49t-104.5 33q-84 16 -129.5 36t-66.5 56.5t-21 101.5q0 90 53.5 134.5t165.5 44.5h384v-160q45 56 81.5 91t85.5 57t113 22q126 0 178.5 -77.5t52.5 -181.5v-205h125zM1099.5 436
q-50.5 -28 -84 -61.5t-70.5 -79.5q-5 -8 -17 -22v-227h459v201q0 93 -45 155t-132 62q-60 0 -110.5 -28zM306 -320h64v-66h-64v66zM419 -320h64v-66h-64v66z" />
    <glyph glyph-name="uniFD23" unicode="&#xfd23;" horiz-adv-x="1564" arabic-form="final" 
d="M40 0zM1564 46v-46h-688v455h-331q-84 0 -126 -33t-42 -98q0 -52 12.5 -76.5t49.5 -39.5t123 -32q107 -21 153 -67t46 -133q0 -61 -23 -112t-71.5 -81.5t-120.5 -30.5h-256q-76 0 -132.5 27t-87 73.5t-30.5 101.5q0 27 7.5 91t18.5 139l50 -8q-24 -165 -24 -206
q0 -52 27 -91t71.5 -60t94.5 -21l258 -1q53 0 91 25t57 65t19 84q0 45 -13.5 74t-50 49t-104.5 33q-84 16 -129.5 36t-66.5 56.5t-21 101.5q0 90 53.5 134.5t165.5 44.5h384v-160q45 56 81.5 91t85.5 57t113 22q126 0 178.5 -77.5t52.5 -181.5v-205h125zM1099.5 436
q-50.5 -28 -84 -61.5t-70.5 -79.5q-5 -8 -17 -22v-227h459v201q0 93 -45 155t-132 62q-60 0 -110.5 -28zM1152 657h55v-64h-55v64z" />
    <glyph glyph-name="uniFD24" unicode="&#xfd24;" horiz-adv-x="1564" arabic-form="final" 
d="M40 0zM1564 46v-46h-688v455h-331q-84 0 -126 -33t-42 -98q0 -52 12.5 -76.5t49.5 -39.5t123 -32q107 -21 153 -67t46 -133q0 -61 -23 -112t-71.5 -81.5t-120.5 -30.5h-256q-76 0 -132.5 27t-87 73.5t-30.5 101.5q0 27 7.5 91t18.5 139l50 -8q-24 -165 -24 -206
q0 -52 27 -91t71.5 -60t94.5 -21l258 -1q53 0 91 25t57 65t19 84q0 45 -13.5 74t-50 49t-104.5 33q-84 16 -129.5 36t-66.5 56.5t-21 101.5q0 90 53.5 134.5t165.5 44.5h384v-160q45 56 81.5 91t85.5 57t113 22q126 0 178.5 -77.5t52.5 -181.5v-205h125zM1099.5 436
q-50.5 -28 -84 -61.5t-70.5 -79.5q-5 -8 -17 -22v-227h459v201q0 93 -45 155t-132 62q-60 0 -110.5 -28zM1152 657h55v-64h-55v64zM306 -320h64v-66h-64v66zM419 -320h64v-66h-64v66z" />
    <glyph glyph-name="uniFD29" unicode="&#xfd29;" horiz-adv-x="1195" arabic-form="final" 
d="M40 0zM1195 46v-46h-259q-27 0 -53.5 10t-57.5 35q-31 -45 -92 -45h-189v455q-158 -3 -265 -21v-452q0 -116 -40.5 -173.5t-124.5 -57.5q-14 0 -74 5v45q58 -4 76 -4q55 0 82.5 44.5t27.5 122.5v501q42 12 138 23.5t233 11.5v-454h122q50 0 70 43t20 109v252h52v-251
q0 -66 -15 -112q16 -16 43.5 -28.5t53.5 -12.5h118v252q0 39 -7.5 100t-9.5 74q-2 8 -4 26l40 2q13 -55 23 -118t10 -104v-232h82zM782 776h66v-68h-66v68zM727 661h64v-68h-64v68zM840 661h64v-68h-64v68z" />
    <glyph glyph-name="uniFD2A" unicode="&#xfd2a;" horiz-adv-x="1195" arabic-form="final" 
d="M1195 46v-46h-259q-27 0 -53.5 10t-57.5 35q-31 -45 -92 -45h-189v455q-158 -3 -265 -21v-452q0 -116 -40.5 -173.5t-124.5 -57.5q-14 0 -74 5v45q58 -4 76 -4q55 0 82.5 44.5t27.5 122.5v501q42 12 138 23.5t233 11.5v-454h122q50 0 70 43t20 109v252h52v-251
q0 -66 -15 -112q16 -16 43.5 -28.5t53.5 -12.5h118v252q0 39 -7.5 100t-9.5 74q-2 8 -4 26l40 2q13 -55 23 -118t10 -104v-232h82z" />
    <glyph glyph-name="uniFD2B" unicode="&#xfd2b;" horiz-adv-x="1200" arabic-form="final" 
d="M1200 46v-46h-656v455q-160 -3 -265 -21v-452q0 -116 -40.5 -173.5t-124.5 -57.5q-14 0 -74 5v45q58 -4 76 -4q55 0 82.5 44.5t27.5 122.5v501q42 12 138 23.5t233 11.5v-160q45 56 81.5 91t85.5 57t113 22q126 0 178.5 -77.5t52.5 -181.5v-205h92zM768.5 436.5
q-50.5 -27.5 -84.5 -61.5t-69 -79l-18 -22v-228h458v201q0 93 -44.5 155t-131.5 62q-60 0 -110.5 -27.5z" />
    <glyph glyph-name="uniFD2C" unicode="&#xfd2c;" horiz-adv-x="1200" arabic-form="final" 
d="M40 0zM1200 46v-46h-656v455q-160 -3 -265 -21v-452q0 -116 -40.5 -173.5t-124.5 -57.5q-14 0 -74 5v45q58 -4 76 -4q55 0 82.5 44.5t27.5 122.5v501q42 12 138 23.5t233 11.5v-160q45 56 81.5 91t85.5 57t113 22q126 0 178.5 -77.5t52.5 -181.5v-205h92zM768.5 436.5
q-50.5 -27.5 -84.5 -61.5t-69 -79l-18 -22v-228h458v201q0 93 -44.5 155t-131.5 62q-60 0 -110.5 -27.5zM801 657h55v-64h-55v64z" />
    <glyph glyph-name="uniFE82" unicode="&#x622;" horiz-adv-x="239" arabic-form="final" 
d="M0 0zM239 46v-46h-145v640h53v-594h92zM117 722q-24 10 -39.5 16t-23.5 6q-19 0 -53 -31l-9 -7l-9 32q17 19 37 32.5t37 13.5q10 0 24 -4.5t42 -16.5q51 -22 59 -22t24.5 10t26.5 20l8 7l10 -31q-17 -22 -34.5 -34t-31.5 -12q-21 0 -68 21z" />
    <glyph glyph-name="uniFE84" unicode="&#x623;" horiz-adv-x="239" arabic-form="final" 
d="M14 0zM239 46v-46h-145v640h53v-594h92zM219 708l-197 -38l-8 25l48 13q-31 27 -31 67q0 35 24 60.5t63 25.5q23 0 42.5 -8.5t28.5 -15.5l-8 -29q-6 5 -19 10t-29 5q-28 0 -45 -17.5t-17 -41.5q0 -28 23 -47l116 31z" />
    <glyph glyph-name="uniFE86" unicode="&#x624;" horiz-adv-x="542" arabic-form="final" 
d="M40 0zM542 0h-124q-4 -97 -23 -151.5t-52.5 -75.5t-84.5 -21q-43 0 -141 13v45q86 -12 139 -12q36 0 59.5 13t38 57t14.5 132h-160q-71 0 -108 36.5t-48.5 93t-11.5 136.5q0 79 15.5 133.5t61 87t130.5 32.5q32 0 85 -5.5t87 -11.5v-451v-5h123v-46zM120 102.5
q28 -56.5 113 -56.5h134v6l-1 19l1 -2v396q-76 8 -104 8q-71 0 -108.5 -28t-50.5 -75.5t-12 -119.5q0 -91 28 -147.5zM359 629l-197 -38l-8 25l48 13q-31 27 -31 67q0 35 24 60.5t63 25.5q23 0 42.5 -8.5t28.5 -15.5l-8 -29q-6 5 -19 10t-29 5q-28 0 -45 -17.5t-17 -41.5
q0 -28 23 -47l116 31z" />
    <glyph glyph-name="uniFE88" unicode="&#x625;" horiz-adv-x="239" arabic-form="final" 
d="M37 0zM239 46v-46h-145v726h53v-680h92zM243 -209l-198 -39l-8 26l49 13q-32 28 -32 67q0 34 24.5 59.5t63.5 25.5q23 0 42.5 -8.5t28.5 -15.5l-9 -28q-6 5 -19 10t-29 5q-28 0 -45 -17.5t-17 -42.5q0 -28 23 -47l116 31z" />
    <glyph glyph-name="uniFE8A" unicode="&#x626;" horiz-adv-x="893" arabic-form="final" 
d="M40 0zM893 0h-133l1 -24q0 -61 -23 -112t-71.5 -81.5t-120.5 -30.5h-256q-76 0 -132.5 27t-87 73.5t-30.5 101.5q0 27 7.5 91t18.5 139l50 -8q-24 -165 -24 -206q0 -52 27 -91t71.5 -60t94.5 -21l258 -1q53 0 91 25t57 65t19 84q0 11 -2 29h-33q-73 0 -109 22l21 36
q14 -8 35.5 -10t58.5 -2h212v-46zM251 297l-197 -38l-8 25l48 13q-31 27 -31 67q0 35 24 60.5t63 25.5q23 0 42.5 -8.5t28.5 -15.5l-8 -29q-6 5 -19 10t-29 5q-28 0 -45 -17.5t-17 -41.5q0 -28 23 -47l116 31z" />
    <glyph glyph-name="uniFE8B" unicode="&#x626;" horiz-adv-x="286" arabic-form="initial" 
d="M0 0zM201 500v-500h-201v46h149v454h52zM274 629l-197 -38l-8 25l48 13q-31 27 -31 67q0 35 24 60.5t63 25.5q23 0 42.5 -8.5t28.5 -15.5l-8 -29q-6 5 -19 10t-29 5q-28 0 -45 -17.5t-17 -41.5q0 -28 23 -47l116 31z" />
    <glyph glyph-name="uniFE8C" unicode="&#x626;" horiz-adv-x="350" arabic-form="medial" 
d="M0 0zM350 46v-46h-350v46h149v454h52v-454h149zM275 629l-197 -38l-8 25l48 13q-31 27 -31 67q0 35 24 60.5t63 25.5q23 0 42.5 -8.5t28.5 -15.5l-8 -29q-6 5 -19 10t-29 5q-28 0 -45 -17.5t-17 -41.5q0 -28 23 -47l116 31z" />
    <glyph glyph-name="uniFE8E" unicode="&#x627;" horiz-adv-x="239" arabic-form="final" 
d="M239 46v-46h-145v726h53v-680h92z" />
    <glyph glyph-name="uniFE90" unicode="&#x628;" horiz-adv-x="792" arabic-form="final" 
d="M54 0zM792 46v-46h-491q-101 0 -154.5 17t-73 49t-19.5 84q0 71 31 239l39 -2q-4 -38 -11 -91q-13 -98 -13 -134q0 -49 19.5 -73.5t63 -33.5t124.5 -9h288v454h52v-454h145zM345 -80h55v-65h-55v65z" />
    <glyph glyph-name="uniFE91" unicode="&#x628;" horiz-adv-x="286" arabic-form="initial" 
d="M0 0zM201 500v-500h-201v46h149v454h52zM147 -80h55v-65h-55v65z" />
    <glyph glyph-name="uniFE92" unicode="&#x628;" horiz-adv-x="350" arabic-form="medial" 
d="M0 0zM350 46v-46h-350v46h149v454h52v-454h149zM148 -80h55v-65h-55v65z" />
    <glyph glyph-name="uniFE94" unicode="&#x629;" horiz-adv-x="586" arabic-form="final" 
d="M40 0zM586 46v-46h-324q-86 0 -134 26.5t-68 80.5t-20 143q0 136 46.5 198t159.5 62q26 0 97 -3t125 -7v-454h118zM109 134q17 -45 57.5 -66.5t111.5 -21.5h138v410q-117 7 -150 7q-95 0 -134.5 -50t-39.5 -160q0 -74 17 -119zM195 659h64v-66h-64v66zM308 659h64v-66
h-64v66z" />
    <glyph glyph-name="uniFE96" unicode="&#x62a;" horiz-adv-x="792" arabic-form="final" 
d="M54 0zM792 46v-46h-491q-101 0 -154.5 17t-73 49t-19.5 84q0 71 31 239l39 -2q-4 -38 -11 -91q-13 -98 -13 -134q0 -49 19.5 -73.5t63 -33.5t124.5 -9h288v454h52v-454h145zM285 566h64v-66h-64v66zM398 566h64v-66h-64v66z" />
    <glyph glyph-name="uniFE97" unicode="&#x62a;" horiz-adv-x="286" arabic-form="initial" 
d="M0 0zM201 500v-500h-201v46h149v454h52zM87 659h64v-66h-64v66zM200 659h64v-66h-64v66z" />
    <glyph glyph-name="uniFE98" unicode="&#x62a;" horiz-adv-x="350" arabic-form="medial" 
d="M0 0zM350 46v-46h-350v46h149v454h52v-454h149zM88 659h64v-66h-64v66zM201 659h64v-66h-64v66z" />
    <glyph glyph-name="uniFE9A" unicode="&#x62b;" horiz-adv-x="792" arabic-form="final" 
d="M54 0zM792 46v-46h-491q-101 0 -154.5 17t-73 49t-19.5 84q0 71 31 239l39 -2q-4 -38 -11 -91q-13 -98 -13 -134q0 -49 19.5 -73.5t63 -33.5t124.5 -9h288v454h52v-454h145zM338 683h66v-68h-66v68zM283 568h64v-68h-64v68zM396 568h64v-68h-64v68z" />
    <glyph glyph-name="uniFE9B" unicode="&#x62b;" horiz-adv-x="286" arabic-form="initial" 
d="M0 0zM201 500v-500h-201v46h149v454h52zM140 776h66v-68h-66v68zM85 661h64v-68h-64v68zM198 661h64v-68h-64v68z" />
    <glyph glyph-name="uniFE9C" unicode="&#x62b;" horiz-adv-x="350" arabic-form="medial" 
d="M0 0zM350 46v-46h-350v46h149v454h52v-454h149zM141 776h66v-68h-66v68zM86 661h64v-68h-64v68zM199 661h64v-68h-64v68z" />
    <glyph glyph-name="uniFE9E" unicode="&#x62c;" horiz-adv-x="594" arabic-form="final" 
d="M40 0zM594 46v-46h-171q-29 19 -76.5 34t-101.5 15q-74 0 -112 -35t-38 -114q0 -171 186 -171q70 0 184 24l6 -43q-121 -26 -201 -26q-114 0 -172 55.5t-58 162.5q0 100 51 147.5t151 47.5q61 0 109 -14.5t72 -33.5v304q0 53 -29.5 80.5t-83.5 27.5q-46 0 -204 -24l-3 43
l21 4q141 26 195 26q63 0 110 -37t47 -137v-290h118zM286 -109h64v-68h-64v68z" />
    <glyph glyph-name="uniFE9F" unicode="&#x62c;" horiz-adv-x="524" arabic-form="initial" 
d="M0 0zM417 473q47 -37 47 -137v-336h-464v46h411v307q0 53 -29.5 80.5t-83.5 27.5q-46 0 -204 -24l-3 43l21 4q141 26 195 26q63 0 110 -37zM242 -80h55v-65h-55v65z" />
    <glyph glyph-name="uniFEA0" unicode="&#x62c;" horiz-adv-x="582" arabic-form="medial" 
d="M0 0zM582 46v-46h-582v46h411v307q0 53 -29.5 80.5t-83.5 27.5q-46 0 -204 -24l-3 43l21 4q141 26 195 26q63 0 110 -37t47 -137v-290h118zM263 -80h55v-65h-55v65z" />
    <glyph glyph-name="uniFEA2" unicode="&#x62d;" horiz-adv-x="594" arabic-form="final" 
d="M594 46v-46h-171q-29 19 -76.5 34t-101.5 15q-74 0 -112 -35t-38 -114q0 -171 186 -171q70 0 184 24l6 -43q-121 -26 -201 -26q-114 0 -172 55.5t-58 162.5q0 100 51 147.5t151 47.5q61 0 109 -14.5t72 -33.5v304q0 53 -29.5 80.5t-83.5 27.5q-46 0 -204 -24l-3 43l21 4
q141 26 195 26q63 0 110 -37t47 -137v-290h118z" />
    <glyph glyph-name="uniFEA3" unicode="&#x62d;" horiz-adv-x="524" arabic-form="initial" 
d="M417 473q47 -37 47 -137v-336h-464v46h411v307q0 53 -29.5 80.5t-83.5 27.5q-46 0 -204 -24l-3 43l21 4q141 26 195 26q63 0 110 -37z" />
    <glyph glyph-name="uniFEA4" unicode="&#x62d;" horiz-adv-x="582" arabic-form="medial" 
d="M582 46v-46h-582v46h411v307q0 53 -29.5 80.5t-83.5 27.5q-46 0 -204 -24l-3 43l21 4q141 26 195 26q63 0 110 -37t47 -137v-290h118z" />
    <glyph glyph-name="uniFEA6" unicode="&#x62e;" horiz-adv-x="594" arabic-form="final" 
d="M40 0zM594 46v-46h-171q-29 19 -76.5 34t-101.5 15q-74 0 -112 -35t-38 -114q0 -171 186 -171q70 0 184 24l6 -43q-121 -26 -201 -26q-114 0 -172 55.5t-58 162.5q0 100 51 147.5t151 47.5q61 0 109 -14.5t72 -33.5v304q0 53 -29.5 80.5t-83.5 27.5q-46 0 -204 -24l-3 43
l21 4q141 26 195 26q63 0 110 -37t47 -137v-290h118zM233 657h55v-64h-55v64z" />
    <glyph glyph-name="uniFEA7" unicode="&#x62e;" horiz-adv-x="524" arabic-form="initial" 
d="M0 0zM417 473q47 -37 47 -137v-336h-464v46h411v307q0 53 -29.5 80.5t-83.5 27.5q-46 0 -204 -24l-3 43l21 4q141 26 195 26q63 0 110 -37zM242 657h55v-64h-55v64z" />
    <glyph glyph-name="uniFEA8" unicode="&#x62e;" horiz-adv-x="582" arabic-form="medial" 
d="M0 0zM582 46v-46h-582v46h411v307q0 53 -29.5 80.5t-83.5 27.5q-46 0 -204 -24l-3 43l21 4q141 26 195 26q63 0 110 -37t47 -137v-290h118zM263 657h55v-64h-55v64z" />
    <glyph glyph-name="uniFEAA" unicode="&#x62f;" horiz-adv-x="509" arabic-form="final" 
d="M509 46v-46h-469v46h327v151q0 156 -61 217t-143 61h-72l-3 36q1 2 27.5 5.5t52.5 3.5q104 0 177.5 -73t73.5 -253v-148h90z" />
    <glyph glyph-name="uniFEAC" unicode="&#x630;" horiz-adv-x="509" arabic-form="final" 
d="M40 0zM509 46v-46h-469v46h327v151q0 156 -61 217t-143 61h-72l-3 36q1 2 27.5 5.5t52.5 3.5q104 0 177.5 -73t73.5 -253v-148h90zM89 684h55v-64h-55v64z" />
    <glyph glyph-name="uniFEAE" unicode="&#x631;" horiz-adv-x="386" arabic-form="final" 
d="M386 0h-107v-18q0 -116 -40.5 -173.5t-124.5 -57.5q-14 0 -74 5v45q58 -4 76 -4q55 0 82.5 44.5t27.5 122.5v535h53v-453h107v-46z" />
    <glyph glyph-name="uniFEB0" unicode="&#x632;" horiz-adv-x="386" arabic-form="final" 
d="M40 0zM386 0h-107v-18q0 -116 -40.5 -173.5t-124.5 -57.5q-14 0 -74 5v45q58 -4 76 -4q55 0 82.5 44.5t27.5 122.5v535h53v-453h107v-46zM223 657h55v-64h-55v64z" />
    <glyph glyph-name="uniFEB2" unicode="&#x633;" horiz-adv-x="1165" arabic-form="final" 
d="M1165 46v-46h-295q-27 0 -53.5 10t-57.5 34q-33 -44 -92 -44h-137v-40q0 -74 -36.5 -120.5t-90.5 -67t-109 -20.5q-59 0 -117.5 22t-97.5 68t-39 114q0 36 12 130.5t26 183.5l51 -2q-14 -87 -24.5 -175.5t-10.5 -122.5q0 -54 28.5 -93t73 -59t91.5 -20q48 0 92 20
t71.5 56.5t27.5 84.5v491h52v-404h122q50 0 70.5 43t20.5 109v252h52v-251q0 -67 -15 -113q17 -16 44 -28t53 -12h118v252q0 50 -18 178l-3 21l39 3q14 -55 24 -117.5t10 -104.5v-232h118z" />
    <glyph glyph-name="uniFEB3" unicode="&#x633;" horiz-adv-x="809" arabic-form="initial" 
d="M725 382.5q10 -62.5 10 -104.5v-278h-177q-27 0 -53.5 10t-57.5 34q-33 -44 -92 -44h-355v46h166v404h52v-404h122q50 0 70.5 43t20.5 109v252h52v-251q0 -67 -15 -113q18 -16 44 -28t53 -12h118v252q0 50 -18 178l-3 21l39 3q14 -55 24 -117.5z" />
    <glyph glyph-name="uniFEB4" unicode="&#x633;" horiz-adv-x="833" arabic-form="medial" 
d="M833 46v-46h-275q-27 0 -53.5 10t-57.5 34q-33 -44 -92 -44h-355v46h166v404h52v-404h122q50 0 70.5 43t20.5 109v252h52v-251q0 -67 -15 -113q18 -16 44 -28t53 -12h118v252q0 50 -18 178l-3 21l39 3q14 -55 24 -117.5t10 -104.5v-232h98z" />
    <glyph glyph-name="uniFEB6" unicode="&#x634;" horiz-adv-x="1165" arabic-form="final" 
d="M40 0zM1165 46v-46h-295q-27 0 -53.5 10t-57.5 34q-33 -44 -92 -44h-137v-40q0 -74 -36.5 -120.5t-90.5 -67t-109 -20.5q-59 0 -117.5 22t-97.5 68t-39 114q0 36 12 130.5t26 183.5l51 -2q-14 -87 -24.5 -175.5t-10.5 -122.5q0 -54 28.5 -93t73 -59t91.5 -20q48 0 92 20
t71.5 56.5t27.5 84.5v491h52v-404h122q50 0 70.5 43t20.5 109v252h52v-251q0 -67 -15 -113q17 -16 44 -28t53 -12h118v252q0 50 -18 178l-3 21l39 3q14 -55 24 -117.5t10 -104.5v-232h118zM733 776h66v-68h-66v68zM678 661h64v-68h-64v68zM791 661h64v-68h-64v68z" />
    <glyph glyph-name="uniFEB7" unicode="&#x634;" horiz-adv-x="809" arabic-form="initial" 
d="M0 0zM725 382.5q10 -62.5 10 -104.5v-278h-177q-27 0 -53.5 10t-57.5 34q-33 -44 -92 -44h-355v46h166v404h52v-404h122q50 0 70.5 43t20.5 109v252h52v-251q0 -67 -15 -113q18 -16 44 -28t53 -12h118v252q0 50 -18 178l-3 21l39 3q14 -55 24 -117.5zM421 776h66v-68h-66
v68zM366 661h64v-68h-64v68zM479 661h64v-68h-64v68z" />
    <glyph glyph-name="uniFEB8" unicode="&#x634;" horiz-adv-x="833" arabic-form="medial" 
d="M0 0zM833 46v-46h-275q-27 0 -53.5 10t-57.5 34q-33 -44 -92 -44h-355v46h166v404h52v-404h122q50 0 70.5 43t20.5 109v252h52v-251q0 -67 -15 -113q18 -16 44 -28t53 -12h118v252q0 50 -18 178l-3 21l39 3q14 -55 24 -117.5t10 -104.5v-232h98zM401 776h66v-68h-66v68z
M346 661h64v-68h-64v68zM459 661h64v-68h-64v68z" />
    <glyph glyph-name="uniFEBA" unicode="&#x635;" horiz-adv-x="1165" arabic-form="final" 
d="M1165 46v-46h-635v-40q0 -74 -36.5 -120.5t-90.5 -67t-109 -20.5q-59 0 -117.5 22t-97.5 68.5t-39 115.5q0 70 38 312l51 -2q-35 -235 -35 -296q0 -55 28.5 -94.5t73 -59.5t91.5 -20t91 20t72 56.5t28 84.5v541h52v-160q45 56 81.5 91t85.5 57t113 22q126 0 178.5 -77.5
t52.5 -181.5v-205h124zM703.5 437q-49.5 -27 -82.5 -60.5t-70 -78.5q-16 -20 -21 -25v-227h459v201q0 93 -44.5 155t-132.5 62q-59 0 -108.5 -27z" />
    <glyph glyph-name="uniFEBB" unicode="&#x635;" horiz-adv-x="790" arabic-form="initial" 
d="M662.5 432.5q52.5 -77.5 52.5 -181.5v-251h-715v46h152v454h52v-160q45 56 81.5 91t85.5 57t113 22q126 0 178.5 -77.5zM377.5 437q-49.5 -27 -82.5 -60.5t-70 -78.5q-16 -20 -21 -25v-227h459v201q0 93 -44.5 155t-132.5 62q-59 0 -108.5 -27z" />
    <glyph glyph-name="uniFEBC" unicode="&#x635;" horiz-adv-x="814" arabic-form="medial" 
d="M814 46v-46h-814v46h152v454h52v-160q45 56 81.5 91t85.5 57t113 22q126 0 178.5 -77.5t52.5 -181.5v-205h99zM377.5 437q-49.5 -27 -82.5 -60.5t-70 -78.5q-16 -20 -21 -25v-227h459v201q0 93 -44.5 155t-132.5 62q-59 0 -108.5 -27z" />
    <glyph glyph-name="uniFEBE" unicode="&#x636;" horiz-adv-x="1165" arabic-form="final" 
d="M40 0zM1165 46v-46h-635v-40q0 -74 -36.5 -120.5t-90.5 -67t-109 -20.5q-59 0 -117.5 22t-97.5 68.5t-39 115.5q0 70 38 312l51 -2q-35 -235 -35 -296q0 -55 28.5 -94.5t73 -59.5t91.5 -20t91 20t72 56.5t28 84.5v541h52v-160q45 56 81.5 91t85.5 57t113 22
q126 0 178.5 -77.5t52.5 -181.5v-205h124zM703.5 437q-49.5 -27 -82.5 -60.5t-70 -78.5q-16 -20 -21 -25v-227h459v201q0 93 -44.5 155t-132.5 62q-59 0 -108.5 -27zM734 657h55v-64h-55v64z" />
    <glyph glyph-name="uniFEBF" unicode="&#x636;" horiz-adv-x="790" arabic-form="initial" 
d="M0 0zM662.5 432.5q52.5 -77.5 52.5 -181.5v-251h-715v46h152v454h52v-160q45 56 81.5 91t85.5 57t113 22q126 0 178.5 -77.5zM377.5 437q-49.5 -27 -82.5 -60.5t-70 -78.5q-16 -20 -21 -25v-227h459v201q0 93 -44.5 155t-132.5 62q-59 0 -108.5 -27zM422 657h55v-64h-55
v64z" />
    <glyph glyph-name="uniFEC0" unicode="&#x636;" horiz-adv-x="814" arabic-form="medial" 
d="M0 0zM814 46v-46h-814v46h152v454h52v-160q45 56 81.5 91t85.5 57t113 22q126 0 178.5 -77.5t52.5 -181.5v-205h99zM377.5 437q-49.5 -27 -82.5 -60.5t-70 -78.5q-16 -20 -21 -25v-227h459v201q0 93 -44.5 155t-132.5 62q-59 0 -108.5 -27zM402 657h55v-64h-55v64z" />
    <glyph glyph-name="uniFEC2" unicode="&#x637;" horiz-adv-x="766" arabic-form="final" 
d="M766 46v-46h-736v46h54v680h52v-386q45 56 81.5 91t85.5 57t113 22q126 0 178.5 -77.5t52.5 -181.5v-205h119zM309.5 437q-49.5 -27 -82.5 -60.5t-70 -78.5q-16 -20 -21 -25v-227h459v201q0 93 -44.5 155t-132.5 62q-59 0 -108.5 -27z" />
    <glyph glyph-name="uniFEC3" unicode="&#x637;" horiz-adv-x="727" arabic-form="initial" 
d="M543 490q49 -20 86.5 -77.5t37.5 -161.5v-251h-667v46h98v680h53v-472q134 256 297 256q46 0 95 -20zM299.5 401q-66.5 -63 -107.5 -151.5t-41 -154.5v-49h464v218q0 76 -29 120.5t-68.5 62t-78.5 17.5q-73 0 -139.5 -63z" />
    <glyph glyph-name="uniFEC4" unicode="&#x637;" horiz-adv-x="766" arabic-form="medial" 
d="M766 46v-46h-766v46h98v680h53v-472q134 256 297 256q46 0 95 -20t86.5 -77.5t37.5 -161.5v-205h99zM299.5 401q-66.5 -63 -107.5 -151.5t-41 -154.5v-49h464v218q0 76 -29 120.5t-68.5 62t-78.5 17.5q-73 0 -139.5 -63z" />
    <glyph glyph-name="uniFEC6" unicode="&#x638;" horiz-adv-x="766" arabic-form="final" 
d="M30 0zM766 46v-46h-736v46h54v680h52v-386q45 56 81.5 91t85.5 57t113 22q126 0 178.5 -77.5t52.5 -181.5v-205h119zM309.5 437q-49.5 -27 -82.5 -60.5t-70 -78.5q-16 -20 -21 -25v-227h459v201q0 93 -44.5 155t-132.5 62q-59 0 -108.5 -27zM353 657h55v-64h-55v64z" />
    <glyph glyph-name="uniFEC7" unicode="&#x638;" horiz-adv-x="727" arabic-form="initial" 
d="M0 0zM543 490q49 -20 86.5 -77.5t37.5 -161.5v-251h-667v46h98v680h53v-472q134 256 297 256q46 0 95 -20zM299.5 401q-66.5 -63 -107.5 -151.5t-41 -154.5v-49h464v218q0 76 -29 120.5t-68.5 62t-78.5 17.5q-73 0 -139.5 -63zM349 657h55v-64h-55v64z" />
    <glyph glyph-name="uniFEC8" unicode="&#x638;" horiz-adv-x="766" arabic-form="medial" 
d="M0 0zM766 46v-46h-766v46h98v680h53v-472q134 256 297 256q46 0 95 -20t86.5 -77.5t37.5 -161.5v-205h99zM299.5 401q-66.5 -63 -107.5 -151.5t-41 -154.5v-49h464v218q0 76 -29 120.5t-68.5 62t-78.5 17.5q-73 0 -139.5 -63zM353 657h55v-64h-55v64z" />
    <glyph glyph-name="uniFECA" unicode="&#x639;" horiz-adv-x="567" arabic-form="final" 
d="M166 12q-36 -35 -36 -110q0 -85 47 -129t142 -44q71 0 185 24l6 -43l-32 -7q-94 -19 -169 -19q-230 0 -230 221q0 83 33 125.5t100 59.5q-55 42 -92 96.5t-55.5 107t-20.5 89.5l-4 64q71 35 125.5 48.5t110.5 13.5q55 0 110 -13.5t127 -48.5l-3 -64q-2 -40 -22.5 -95.5
t-61 -112t-98.5 -97.5q68 -32 145 -32h94v-46h-95q-50 0 -104 13t-95 37q-71 -3 -107 -38zM147 240q51 -80 130 -133q77 50 129 132t52 182q-109 42 -181 42q-41 0 -84.5 -11t-96.5 -31q0 -101 51 -181z" />
    <glyph glyph-name="uniFECB" unicode="&#x639;" horiz-adv-x="548" arabic-form="initial" 
d="M518 46v-46h-518v46h207q-33 34 -56.5 96.5t-23.5 136.5q0 99 44.5 164.5t154.5 65.5q40 0 83 -10t79 -30l-1 -43q-5 5 -31 14t-60 16t-63 7q-79 0 -116.5 -52.5t-37.5 -135.5q0 -73 27 -133.5t67 -95.5h245z" />
    <glyph glyph-name="uniFECC" unicode="&#x639;" horiz-adv-x="590" arabic-form="medial" 
d="M590 46v-46h-94q-49 0 -102 12.5t-95 34.5q-41 -21 -91.5 -34t-101.5 -13h-106v46h103q74 0 146 30q-58 42 -98.5 99t-61.5 113t-23 95l-3 64q71 35 125 48.5t111 13.5q56 0 110.5 -13.5t126.5 -48.5l-3 -64q-2 -40 -23 -95t-61.5 -112t-98.5 -98q70 -32 145 -32h95z
M170 239.5q51 -80.5 130 -132.5q76 50 128.5 132.5t52.5 181.5q-53 20 -96.5 31t-84.5 11q-42 0 -84.5 -11t-96.5 -31q0 -101 51 -181.5z" />
    <glyph glyph-name="uniFECE" unicode="&#x63a;" horiz-adv-x="567" arabic-form="final" 
d="M40 0zM166 12q-36 -35 -36 -110q0 -85 47 -129t142 -44q71 0 185 24l6 -43l-32 -7q-94 -19 -169 -19q-230 0 -230 221q0 83 33 125.5t100 59.5q-55 42 -92 96.5t-55.5 107t-20.5 89.5l-4 64q71 35 125.5 48.5t110.5 13.5q55 0 110 -13.5t127 -48.5l-3 -64
q-2 -40 -22.5 -95.5t-61 -112t-98.5 -97.5q68 -32 145 -32h94v-46h-95q-50 0 -104 13t-95 37q-71 -3 -107 -38zM147 240q51 -80 130 -133q77 50 129 132t52 182q-109 42 -181 42q-41 0 -84.5 -11t-96.5 -31q0 -101 51 -181zM247 657h55v-64h-55v64z" />
    <glyph glyph-name="uniFECF" unicode="&#x63a;" horiz-adv-x="548" arabic-form="initial" 
d="M0 0zM518 46v-46h-518v46h207q-33 34 -56.5 96.5t-23.5 136.5q0 99 44.5 164.5t154.5 65.5q40 0 83 -10t79 -30l-1 -43q-5 5 -31 14t-60 16t-63 7q-79 0 -116.5 -52.5t-37.5 -135.5q0 -73 27 -133.5t67 -95.5h245zM280 657h55v-64h-55v64z" />
    <glyph glyph-name="uniFED0" unicode="&#x63a;" horiz-adv-x="590" arabic-form="medial" 
d="M0 0zM590 46v-46h-94q-49 0 -102 12.5t-95 34.5q-41 -21 -91.5 -34t-101.5 -13h-106v46h103q74 0 146 30q-58 42 -98.5 99t-61.5 113t-23 95l-3 64q71 35 125 48.5t111 13.5q56 0 110.5 -13.5t126.5 -48.5l-3 -64q-2 -40 -23 -95t-61.5 -112t-98.5 -98q70 -32 145 -32h95
zM170 239.5q51 -80.5 130 -132.5q76 50 128.5 132.5t52.5 181.5q-53 20 -96.5 31t-84.5 11q-42 0 -84.5 -11t-96.5 -31q0 -101 51 -181.5zM269 657h55v-64h-55v64z" />
    <glyph glyph-name="uniFED2" unicode="&#x641;" horiz-adv-x="960" arabic-form="final" 
d="M40 0zM960 46v-46h-673q-101 0 -154.5 17t-73 49t-19.5 84q0 39 9.5 106t22.5 133l40 -2l-4 -30q-22 -143 -22 -195q0 -49 19.5 -73.5t63 -33.5t124.5 -9h240q-19 33 -26 75t-7 107q0 109 19 166.5t66 81t139 23.5q72 0 134 -7l17 -2v-444h85zM592 46h231v405
q-77 5 -108 5q-67 0 -102.5 -22.5t-49 -68t-13.5 -123.5q0 -154 42 -196zM688 657h55v-64h-55v64z" />
    <glyph glyph-name="uniFED3" unicode="&#x641;" horiz-adv-x="565" arabic-form="initial" 
d="M0 0zM501 490v-490h-501v46h159q-20 32 -26.5 74t-6.5 108q0 109 18.5 166.5t66 81t138.5 23.5q73 0 135 -7zM218 46h231v404q-69 6 -108 6q-67 0 -102.5 -22.5t-49 -68t-13.5 -123.5q0 -154 42 -196zM310 657h55v-64h-55v64z" />
    <glyph glyph-name="uniFED4" unicode="&#x641;" horiz-adv-x="585" arabic-form="medial" 
d="M0 0zM585 46v-46h-585v46h159q-20 32 -26.5 74t-6.5 108q0 109 18.5 166.5t66 81t138.5 23.5q73 0 135 -7l17 -2v-444h84zM218 46h231v404q-69 6 -108 6q-67 0 -102.5 -22.5t-49 -68t-13.5 -123.5q0 -154 42 -196zM271 657h55v-64h-55v64z" />
    <glyph glyph-name="uniFED6" unicode="&#x642;" horiz-adv-x="871" arabic-form="final" 
d="M40 0zM871 0h-109v-37q0 -94 -59.5 -147t-159.5 -53h-281q-100 0 -161 53.5t-61 147.5q0 74 34 270l50 -8q-16 -104 -23 -157t-7 -87q0 -82 43.5 -127.5t128.5 -45.5h271q87 0 130 45t43 129v17h-154q-65 0 -101.5 21.5t-52.5 71t-16 139.5t17.5 148t62 89t125.5 31
q26 0 74 -2.5t80 -5.5l17 -2v-444h109v-46zM451.5 123q13.5 -41 44 -59t83.5 -18h131v403l-21 2q-78 6 -87 6q-93 0 -128.5 -53t-35.5 -167q0 -73 13.5 -114zM513 659h64v-66h-64v66zM626 659h64v-66h-64v66z" />
    <glyph glyph-name="uniFED7" unicode="&#x642;" horiz-adv-x="565" arabic-form="initial" 
d="M0 0zM501 490v-490h-501v46h159q-20 32 -26.5 74t-6.5 108q0 109 18.5 166.5t66 81t138.5 23.5q73 0 135 -7zM218 46h231v404q-69 6 -108 6q-67 0 -102.5 -22.5t-49 -68t-13.5 -123.5q0 -154 42 -196zM250 659h64v-66h-64v66zM363 659h64v-66h-64v66z" />
    <glyph glyph-name="uniFED8" unicode="&#x642;" horiz-adv-x="585" arabic-form="medial" 
d="M0 0zM585 46v-46h-585v46h159q-20 32 -26.5 74t-6.5 108q0 109 18.5 166.5t66 81t138.5 23.5q73 0 135 -7l17 -2v-444h84zM218 46h231v404q-69 6 -108 6q-67 0 -102.5 -22.5t-49 -68t-13.5 -123.5q0 -154 42 -196zM211 659h64v-66h-64v66zM324 659h64v-66h-64v66z" />
    <glyph glyph-name="uniFEDA" unicode="&#x643;" horiz-adv-x="797" arabic-form="final" 
d="M54 0zM797 46v-46h-495q-101 0 -155 17t-73.5 49t-19.5 84q0 63 27 210l41 -2q-4 -31 -7 -49q-15 -109 -15 -147q0 -49 19.5 -73.5t63 -33.5t124.5 -9h289v680h52v-680h149zM439 399l-197 -38l-8 25l48 13q-31 27 -31 67q0 35 24 60.5t63 25.5q23 0 42.5 -8.5t28.5 -15.5
l-8 -29q-6 5 -19 10t-29 5q-28 0 -45 -17.5t-17 -41.5q0 -28 23 -47l116 31z" />
    <glyph glyph-name="uniFEDB" unicode="&#x643;" horiz-adv-x="563" arabic-form="initial" 
d="M463.5 356.5q39.5 -52.5 39.5 -156.5v-200h-503v46h451v155q0 64 -21.5 112.5t-81.5 49.5h-273l-43 59l49 95q32 64 132 193l36 -20q-57 -86 -78.5 -121.5t-38.5 -68.5l-47 -91h262q77 0 116.5 -52.5z" />
    <glyph glyph-name="uniFEDC" unicode="&#x643;" horiz-adv-x="650" arabic-form="medial" 
d="M650 46v-46h-650v46h451v155q0 64 -21.5 112.5t-81.5 49.5h-273l-43 59l49 95q32 64 132 193l36 -20q-57 -86 -78.5 -121.5t-38.5 -68.5l-47 -91h262q77 0 116.5 -52.5t39.5 -156.5v-154h147z" />
    <glyph glyph-name="uniFEDE" unicode="&#x644;" horiz-adv-x="643" arabic-form="final" 
d="M643 0h-114v-51q0 -68 -34.5 -112.5t-89.5 -64.5t-116 -20q-68 0 -125.5 24.5t-91 70.5t-33.5 107q0 39 13 134t29 184l51 -3q-39 -252 -39 -314q0 -47 26 -82.5t70.5 -55t98.5 -19.5q78 0 133.5 39.5t55.5 118.5v770h52v-680h114v-46z" />
    <glyph glyph-name="uniFEDF" unicode="&#x644;" horiz-adv-x="270" arabic-form="initial" 
d="M175 726v-726h-175v46h123v680h52z" />
    <glyph glyph-name="uniFEE0" unicode="&#x644;" horiz-adv-x="312" arabic-form="medial" 
d="M312 46v-46h-312v46h123v680h52v-680h137z" />
    <glyph glyph-name="uniFEE2" unicode="&#x645;" horiz-adv-x="633" arabic-form="final" 
d="M633 46v-46h-22q-19 0 -44 9.5t-49 26.5v-36h-321q-110 0 -110 -137q0 -68 27 -188l-44 -2q-15 72 -22 116.5t-7 87.5q0 136 85 162q-14 86 -14 203q0 73 6.5 139t14.5 105q23 9 66 16.5t88 7.5q110 0 170.5 -58t60.5 -202v-169q23 -17 43 -26t50 -9h22zM466 46v204
q0 117 -49.5 165.5t-142.5 48.5q-45 0 -93 -11q-15 -105 -15 -211q0 -102 13 -196h287z" />
    <glyph glyph-name="uniFEE3" unicode="&#x645;" horiz-adv-x="626" arabic-form="initial" 
d="M501.5 452q60.5 -58 60.5 -202v-250h-562v46h169q-14 88 -14 196q0 74 6.5 140.5t15.5 103.5q23 9 65.5 16.5t87.5 7.5q111 0 171.5 -58zM213.5 132q4.5 -54 9.5 -86h286v204q0 117 -49.5 165.5t-141.5 48.5q-47 0 -93 -11q-16 -98 -16 -211q0 -56 4.5 -110z" />
    <glyph glyph-name="uniFEE4" unicode="&#x645;" horiz-adv-x="675" arabic-form="medial" 
d="M675 46v-46h-22q-19 0 -43.5 9t-47.5 25v-34h-562v46h169q-14 88 -14 196q0 74 6.5 140.5t15.5 103.5q23 9 65.5 16.5t87.5 7.5q111 0 171.5 -58t60.5 -202v-170q19 -15 40 -24.5t51 -9.5h22zM213.5 132q4.5 -54 9.5 -86h286v204q0 117 -49.5 165.5t-141.5 48.5
q-47 0 -93 -11q-16 -98 -16 -211q0 -56 4.5 -110z" />
    <glyph glyph-name="uniFEE6" unicode="&#x646;" horiz-adv-x="649" arabic-form="final" 
d="M40 0zM649 0h-119v-51q0 -68 -34.5 -112.5t-89.5 -64.5t-116 -20q-68 0 -125.5 24.5t-91 70.5t-33.5 107q0 39 13 134t29 184l51 -3q-39 -252 -39 -314q0 -47 26 -82.5t70.5 -55t98.5 -19.5q78 0 133.5 39.5t55.5 118.5v544h52v-454h119v-46zM265 564h55v-64h-55v64z" />
    <glyph glyph-name="uniFEE7" unicode="&#x646;" horiz-adv-x="286" arabic-form="initial" 
d="M0 0zM201 500v-500h-201v46h149v454h52zM147 657h55v-64h-55v64z" />
    <glyph glyph-name="uniFEE8" unicode="&#x646;" horiz-adv-x="350" arabic-form="medial" 
d="M0 0zM350 46v-46h-350v46h149v454h52v-454h149zM148 657h55v-64h-55v64z" />
    <glyph glyph-name="uniFEEA" unicode="&#x647;" horiz-adv-x="586" arabic-form="final" 
d="M586 46v-46h-324q-86 0 -134 26.5t-68 80.5t-20 143q0 136 46.5 198t159.5 62q26 0 97 -3t125 -7v-454h118zM109 134q17 -45 57.5 -66.5t111.5 -21.5h138v410q-117 7 -150 7q-95 0 -134.5 -50t-39.5 -160q0 -74 17 -119z" />
    <glyph glyph-name="uniFEEB" unicode="&#x647;" horiz-adv-x="744" arabic-form="initial" 
d="M587.5 459.5q92.5 -68.5 92.5 -253.5v-206h-680v46h119v106q1 47 24.5 86t62 61.5t83.5 22.5q43 0 81.5 -21t62.5 -60t24 -89v-106h170v157q0 278 -273 278q-75 0 -203 -23l-2 38q4 2 38.5 10.5t81 15t92.5 6.5q134 0 226.5 -68.5zM205 243.5q-34 -32.5 -34 -78.5v-119
h234v118q0 47 -33 79.5t-83 32.5t-84 -32.5z" />
    <glyph glyph-name="uniFEEC" unicode="&#x647;" horiz-adv-x="783" arabic-form="medial" 
d="M783 46v-46h-783v46h119v106q1 47 24.5 86t62 61.5t83.5 22.5q43 0 81.5 -21t62.5 -60t24 -89v-106h170v157q0 278 -273 278q-75 0 -203 -23l-2 38q4 2 38.5 10.5t81 15t92.5 6.5q134 0 226.5 -68.5t92.5 -253.5v-160h103zM205 243.5q-34 -32.5 -34 -78.5v-119h234v118
q0 47 -33 79.5t-83 32.5t-84 -32.5z" />
    <glyph glyph-name="uniFEEE" unicode="&#x648;" horiz-adv-x="542" arabic-form="final" 
d="M542 0h-124q-4 -97 -23 -151.5t-52.5 -75.5t-84.5 -21q-43 0 -141 13v45q86 -12 139 -12q36 0 59.5 13t38 57t14.5 132h-160q-71 0 -108 36.5t-48.5 93t-11.5 136.5q0 79 15.5 133.5t61 87t130.5 32.5q32 0 85 -5.5t87 -11.5v-451v-5h123v-46zM120 102.5
q28 -56.5 113 -56.5h134v6l-1 19l1 -2v396q-76 8 -104 8q-71 0 -108.5 -28t-50.5 -75.5t-12 -119.5q0 -91 28 -147.5z" />
    <glyph glyph-name="uniFEF0" unicode="&#x649;" horiz-adv-x="893" arabic-form="final" 
d="M893 0h-133l1 -24q0 -61 -23 -112t-71.5 -81.5t-120.5 -30.5h-256q-76 0 -132.5 27t-87 73.5t-30.5 101.5q0 27 7.5 91t18.5 139l50 -8q-24 -165 -24 -206q0 -52 27 -91t71.5 -60t94.5 -21l258 -1q53 0 91 25t57 65t19 84q0 11 -2 29h-33q-73 0 -109 22l21 36
q14 -8 35.5 -10t58.5 -2h212v-46z" />
    <glyph glyph-name="uniFEF2" unicode="&#x64a;" horiz-adv-x="893" arabic-form="final" 
d="M40 0zM893 0h-133l1 -24q0 -61 -23 -112t-71.5 -81.5t-120.5 -30.5h-256q-76 0 -132.5 27t-87 73.5t-30.5 101.5q0 27 7.5 91t18.5 139l50 -8q-24 -165 -24 -206q0 -52 27 -91t71.5 -60t94.5 -21l258 -1q53 0 91 25t57 65t19 84q0 11 -2 29h-33q-73 0 -109 22l21 36
q14 -8 35.5 -10t58.5 -2h212v-46zM306 -320h64v-66h-64v66zM419 -320h64v-66h-64v66z" />
    <glyph glyph-name="uniFEF3" unicode="&#x64a;" horiz-adv-x="286" arabic-form="initial" 
d="M0 0zM201 500v-500h-201v46h149v454h52zM85 -80h64v-66h-64v66zM198 -80h64v-66h-64v66z" />
    <glyph glyph-name="uniFEF4" unicode="&#x64a;" horiz-adv-x="350" arabic-form="medial" 
d="M0 0zM350 46v-46h-350v46h149v454h52v-454h149zM86 -80h64v-66h-64v66zM199 -80h64v-66h-64v66z" />
    <glyph glyph-name=".notdef" horiz-adv-x="235" 
 />
    <glyph glyph-name="uni0000" horiz-adv-x="0" 
 />
    <glyph glyph-name="uni0000" horiz-adv-x="0" 
 />
    <glyph glyph-name="nonmarkingreturn" horiz-adv-x="235" 
 />
    <glyph glyph-name="uni000D" unicode="&#xd;" horiz-adv-x="333" 
 />
    <glyph glyph-name="space" unicode=" " horiz-adv-x="220" 
 />
    <glyph glyph-name="exclam" unicode="!" horiz-adv-x="233" 
d="M91 697h50l-1 -479h-48zM90 91h55v-91h-55v91z" />
    <glyph glyph-name="quotedbl" unicode="&#x22;" horiz-adv-x="357" 
d="M72 697h51l-4 -214h-45zM234 697h51l-4 -214h-45z" />
    <glyph glyph-name="numbersign" unicode="#" 
d="M145 185h-118v43h118v212h-118v43h118v186h47v-186h176v186h47v-186h118v-43h-118v-212h118v-43h-118v-185h-47v185h-176v-185h-47v185zM368 228v212h-176v-212h176z" />
    <glyph glyph-name="dollar" unicode="$" 
d="M209 -114l14 108q-117 13 -129 14l-14 1l6 43q74 -10 142 -15l37 283q-72 15 -111.5 33.5t-58.5 52.5t-19 94q0 66 22 103t66.5 51.5t118.5 14.5l27 -1l17 125h41l-17 -127q7 -1 33 -3t67 -7l23 -3l-4 -43l-47 6l-77 8l-34 -265q68 -14 105 -31.5t54 -49.5t17 -88
q0 -99 -49 -148.5t-155 -49.5h-21l-13 -113q-41 3 -41 7zM305 627q-68 1 -106 -9.5t-56 -37.5t-18 -78q0 -44 13.5 -69.5t44 -40t88.5 -27.5zM398 70q42 38 42 119q0 42 -12.5 65.5t-40.5 36.5t-81 24l-36 -281q86 -2 128 36z" />
    <glyph glyph-name="percent" unicode="%" 
d="M168 -2l192 675l37 -11l-192 -674zM62 430.5q-28 35.5 -28 105.5q0 133 106 133q105 0 105 -133q0 -70 -28 -105.5t-77 -35.5q-50 0 -78 35.5zM187 459q15 25 15 78q0 49 -14 71.5t-47 22.5q-32 0 -47 -22.5t-15 -71.5q0 -103 62 -103q31 0 46 25zM343.5 26.5
q-27.5 35.5 -27.5 104.5q0 134 106 134q52 0 78 -34t26 -98q0 -70 -28 -106t-78 -36q-49 0 -76.5 35.5zM468.5 53.5q13.5 24.5 13.5 76.5t-13.5 74t-46.5 22q-34 0 -48 -21.5t-14 -71.5q0 -55 15 -79.5t47 -24.5q33 0 46.5 24.5z" />
    <glyph glyph-name="ampersand" unicode="&#x26;" horiz-adv-x="682" 
d="M99.5 45q-54.5 54 -54.5 158q0 62 18 102t52.5 63t90.5 40q-26 27 -39.5 58.5t-13.5 75.5q0 76 41.5 115t119.5 39q79 0 119 -38t40 -111q0 -68 -37.5 -109t-124.5 -73l176 -173q13 39 20 78.5t12 98.5h48q-14 -134 -44 -210l136 -133l-31 -34l-128 125
q-39 -73 -91.5 -99.5t-129.5 -26.5q-125 0 -179.5 54zM391.5 456.5q32.5 31.5 32.5 87.5q0 55 -27.5 81.5t-83.5 26.5t-84 -26t-28 -80q0 -69 45 -117l34 -33q79 29 111.5 60.5zM394 63q44 27 71 85l-227 226q-52 -14 -82.5 -33t-45.5 -50.5t-15 -82.5q0 -88 44.5 -130
t136.5 -42q74 0 118 27z" />
    <glyph glyph-name="quotesingle" unicode="'" horiz-adv-x="195" 
d="M72 697h51l-4 -214h-45z" />
    <glyph glyph-name="parenleft" unicode="(" horiz-adv-x="245" 
d="M79.5 109.5q-22.5 98.5 -22.5 194.5q0 98 24 205.5t74 240.5h49q-39 -103 -67 -234t-28 -224q0 -79 26 -190t69 -227h-49q-53 136 -75.5 234.5z" />
    <glyph glyph-name="parenright" unicode=")" horiz-adv-x="245" 
d="M41 -125q49 135 71.5 234t22.5 182q0 109 -27 228t-67 231h49q49 -132 73.5 -240t24.5 -206q0 -95 -22.5 -194t-75.5 -235h-49z" />
    <glyph glyph-name="asterisk" unicode="*" horiz-adv-x="418" 
d="M193 505l-109 -79l-24 32l109 79l-107 79l24 33l108 -80l42 128l38 -12l-41 -129h133v-40h-136l42 -127l-38 -12z" />
    <glyph glyph-name="plus" unicode="+" 
d="M255 228h-198v46h198v206h48v-206h200v-46h-200v-208h-48v208z" />
    <glyph glyph-name="comma" unicode="," horiz-adv-x="206" 
d="M84 94h55l-57 -217h-42z" />
    <glyph glyph-name="hyphen" unicode="-" horiz-adv-x="451" 
d="M73 303h306v-48h-306v48z" />
    <glyph glyph-name="period" unicode="." horiz-adv-x="199" 
d="M72 91h55v-91h-55v91z" />
    <glyph glyph-name="slash" unicode="/" horiz-adv-x="389" 
d="M32 11l280 693l45 -18l-280 -691z" />
    <glyph glyph-name="zero" unicode="0" 
d="M149 22q-51 32 -77 106.5t-26 200.5t26 200.5t77 107.5t131 33q79 0 130 -33t77 -108t26 -200q0 -126 -26 -200.5t-77 -106.5t-130 -32q-80 0 -131 32zM383.5 62.5q39.5 27.5 58.5 91.5t19 175t-19 175t-58.5 91.5t-103.5 27.5t-103.5 -27.5t-58.5 -91.5t-19 -175
t19 -175t58.5 -91.5t103.5 -27.5t103.5 27.5z" />
    <glyph glyph-name="one" unicode="1" 
d="M326 604l-182 -120l-23 38l207 138h48v-660h-50v604z" />
    <glyph glyph-name="two" unicode="2" 
d="M71 42l215 229q44 45 68 73.5t44.5 68t20.5 80.5q0 70 -39 100t-127 30q-60 0 -144 -19l-27 -6l-6 45q90 26 193 26q102 0 152 -41t50 -131q0 -65 -29.5 -116.5t-104.5 -124.5l-203 -212h356v-44h-419v42z" />
    <glyph glyph-name="three" unicode="3" 
d="M95 8l-31 7l7 45q50 -12 93 -19.5t88 -7.5q85 0 136.5 33t51.5 118q0 67 -37.5 102t-116.5 38h-133v46h133q31 0 63 16.5t52.5 47.5t20.5 70q0 64 -33.5 92t-112.5 28q-91 0 -168 -16l-26 -5l-6 43q94 25 202 25q104 0 150 -40t46 -130q0 -47 -29.5 -90t-78.5 -59
q66 -20 95.5 -55.5t29.5 -110.5q0 -100 -50.5 -147.5t-157.5 -47.5q-89 0 -188 17z" />
    <glyph glyph-name="four" unicode="4" 
d="M377 138h-337v40l199 482h54l-197 -477h281v215h51v-215h93v-45h-93v-138h-51v138z" />
    <glyph glyph-name="five" unicode="5" 
d="M196.5 -3.5q-41.5 4.5 -96.5 15.5l-31 6l6 43q108 -23 191 -23q89 0 135.5 46.5t46.5 130.5q0 81 -41 116.5t-123 35.5q-34 0 -77.5 -12.5t-66.5 -24.5l-23 -13l-41 6l18 337h377v-48h-332l-18 -247q84 49 171 49q208 0 208 -193q0 -111 -57.5 -170t-161.5 -59
q-43 0 -84.5 4.5z" />
    <glyph glyph-name="six" unicode="6" 
d="M114.5 75q-57.5 84 -57.5 256q0 171 64.5 254.5t185.5 83.5q77 0 149 -8l25 -4l-5 -44q-90 11 -174 11q-91 0 -141.5 -68t-50.5 -192l26 11q27 11 74.5 22.5t81.5 11.5q109 0 164 -51t55 -151q0 -103 -58.5 -159.5t-164.5 -56.5q-116 0 -173.5 84zM413 80q45 44 45 125
q0 79 -43.5 118t-124.5 39q-35 0 -81.5 -11t-74.5 -22l-25 -12q1 -131 43.5 -206t126.5 -75q89 0 134 44z" />
    <glyph glyph-name="seven" unicode="7" 
d="M174 8l259 582v23h-353v47h405v-77l-262 -592z" />
    <glyph glyph-name="eight" unicode="8" 
d="M34 168q0 71 29 109t98 70q-61 25 -88.5 60.5t-27.5 95.5q0 86 62 126q60 42 171 42q113 0 175 -43t62 -126q0 -62 -29 -96.5t-97 -58.5q70 -23 103 -62t33 -106q0 -94 -59 -141t-185 -47q-247 0 -247 177zM330 368q69 18 100.5 48t31.5 83q0 125 -182 125t-182 -123
q0 -53 28.5 -84t90.5 -49h113zM472 181q0 42 -15.5 68.5t-45.5 42.5t-81 30h-113q-67 -17 -98.5 -51.5t-31.5 -97.5q0 -136 193 -136q192 0 192 144z" />
    <glyph glyph-name="nine" unicode="9" 
d="M97 1l-24 3l5 43q88 -11 169 -11q200 0 203 260q-106 -42 -192 -42q-107 0 -159 49t-52 148q0 66 27.5 115t77 76t115.5 27q236 0 236 -352q0 -171 -63.5 -248.5t-192.5 -77.5q-67 0 -150 10zM420 331l31 10q-5 283 -181 283q-79 0 -124.5 -46.5t-45.5 -126.5
q0 -151 161 -151q70 0 159 31z" />
    <glyph glyph-name="colon" unicode=":" horiz-adv-x="200" 
d="M72 428h55v-92h-55v92zM72 91h55v-91h-55v91z" />
    <glyph glyph-name="semicolon" unicode=";" horiz-adv-x="235" 
d="M95 428h55v-92h-55v92zM101 94h55l-57 -217h-42z" />
    <glyph glyph-name="less" unicode="&#x3c;" 
d="M59 228v46l420 212v-53l-373 -182l373 -182v-55z" />
    <glyph glyph-name="equal" unicode="=" 
d="M67 362h426v-47h-426v47zM67 187h426v-47h-426v47z" />
    <glyph glyph-name="greater" unicode="&#x3e;" 
d="M79 69l373 182l-373 182v53l421 -212v-46l-421 -214v55z" />
    <glyph glyph-name="question" unicode="?" horiz-adv-x="451" 
d="M169 242q0 38 23.5 70t87.5 89q37 33 54 54t22.5 42.5t5.5 57.5q0 54 -36.5 80t-116.5 26q-35 0 -160 -26l-4 44q107 27 160 27q107 0 156.5 -37.5t49.5 -123.5q0 -41 -7.5 -67t-26.5 -49t-57 -56q-61 -52 -81.5 -80.5t-20.5 -61.5v-37h-44q-5 27 -5 48zM168 92h55v-91
h-55v91z" />
    <glyph glyph-name="at" unicode="@" horiz-adv-x="979" 
d="M306.5 -178q-78.5 22 -135.5 74q-114 99 -114 365q0 163 48.5 264t147 148t251.5 47q150 0 243.5 -44t137 -135t43.5 -236v-15q0 -124 -17.5 -188.5t-51.5 -87.5t-92 -23q-50 0 -78 15.5t-39 46.5q-106 -60 -186 -60q-51 0 -88 17.5t-60 69t-23 147.5q0 102 20.5 163
t65.5 89t122 28q48 0 106 -19l20 -7v17h49v-196q0 -188 13 -230q13 -27 28 -33.5t33 -6t25 0.5q46 0 68.5 36.5t28 89t5.5 131.5v16q0 133 -37.5 214t-119 119t-217.5 38q-138 0 -224.5 -42t-128.5 -133.5t-42 -243.5q0 -153 40.5 -243.5t126.5 -131t229 -40.5l143 10l3 -45
q-104 -8 -146 -8q-119 0 -197.5 22zM637 91q-10 60 -10 202v146q-72 25 -122 25q-62 0 -97 -23.5t-50 -71.5t-15 -128q0 -205 124 -205q45 0 170 55z" />
    <glyph glyph-name="A" unicode="A" horiz-adv-x="593" 
d="M457 202h-321l-60 -202h-49l206 697h127l206 -697h-49zM323 652h-52l-122 -403h295z" />
    <glyph glyph-name="B" unicode="B" horiz-adv-x="619" 
d="M90 697h244q103 0 153 -43.5t50 -133.5q0 -64 -24 -102t-71 -58q61 -21 90.5 -62.5t29.5 -112.5q0 -97 -53.5 -141t-157.5 -44h-261v697zM342 379q73 0 108 34.5t35 104.5q0 71 -36 102t-116 31h-193v-272h202zM349 46q78 0 120 34t42 108q0 81 -46.5 113t-122.5 32h-202
v-287h209z" />
    <glyph glyph-name="C" unicode="C" horiz-adv-x="544" 
d="M162.5 31.5q-56.5 40.5 -77.5 117t-21 201.5q0 120 19.5 195.5t76 118t162.5 42.5q76 0 180 -19l-3 -46q-98 19 -179 19q-85 0 -128 -30.5t-59 -99.5t-16 -199q0 -105 15.5 -166.5t62.5 -94.5t139 -33q72 0 165 20l3 -46q-97 -20 -178 -20q-105 0 -161.5 40.5z" />
    <glyph glyph-name="D" unicode="D" horiz-adv-x="648" 
d="M538 600q48 -97 48 -232q0 -189 -63.5 -278.5t-177.5 -89.5h-255v697h255q145 0 193 -97zM444 80q43 35 67 104.5t24 170.5q0 151 -50.5 224t-139.5 73h-205v-607h205q56 0 99 35z" />
    <glyph glyph-name="E" unicode="E" horiz-adv-x="553" 
d="M140 652v-274h303v-45h-303v-288h363v-45h-413v697h413v-45h-363z" />
    <glyph glyph-name="F" unicode="F" horiz-adv-x="524" 
d="M140 652v-301h304v-45h-304v-306h-50v697h405v-45h-355z" />
    <glyph glyph-name="G" unicode="G" horiz-adv-x="618" 
d="M171 29.5q-58 38.5 -83.5 116.5t-25.5 201q0 124 25 202.5t82.5 117.5t155.5 39q87 0 190 -19l33 -6l-3 -45q-126 24 -223 24q-74 0 -119 -28.5t-66.5 -94.5t-21.5 -180q0 -117 19.5 -186.5t65.5 -102t129 -32.5q41 0 79 4.5t90 14.5v248h-138v47h188v-335
q-118 -24 -222 -24q-97 0 -155 38.5z" />
    <glyph glyph-name="H" unicode="H" horiz-adv-x="674" 
d="M584 697v-697h-49v326h-395v-326h-50v697h50v-324h395v324h49z" />
    <glyph glyph-name="I" unicode="I" horiz-adv-x="229" 
d="M90 697h50v-697h-50v697z" />
    <glyph glyph-name="J" unicode="J" horiz-adv-x="283" 
d="M18 -26q62 0 87 7t33.5 32t8.5 87v597h49l1 -611q0 -78 -21.5 -112t-55 -40.5t-102.5 -6.5v47z" />
    <glyph glyph-name="K" unicode="K" horiz-adv-x="559" 
d="M264 321l-124 -2v-319h-50v697h50v-332l120 1l209 331h58l-222 -351l236 -346h-61z" />
    <glyph glyph-name="L" unicode="L" horiz-adv-x="482" 
d="M468 46v-46h-378v697h50v-651h328z" />
    <glyph glyph-name="M" unicode="M" horiz-adv-x="832" 
d="M742 697v-697h-50v646h-12l-232 -623h-64l-233 623h-11v-646h-50v697h97l229 -618l229 618h97z" />
    <glyph glyph-name="N" unicode="N" horiz-adv-x="669" 
d="M579 697v-697h-104l-316 652h-19v-652h-50v697h105l313 -652h22v652h49z" />
    <glyph glyph-name="O" unicode="O" horiz-adv-x="663" 
d="M171 28q-59 37 -83.5 114t-24.5 204q0 126 25.5 204.5t84 117t159.5 38.5q100 0 159 -38.5t85 -117.5t26 -207q0 -130 -25 -206t-83 -111t-161 -35t-162 37zM464.5 66.5q46.5 30.5 65.5 96t19 180.5t-19.5 183.5t-67 101.5t-130.5 33q-84 0 -131.5 -32.5t-67 -100.5
t-19.5 -182q0 -117 20 -183.5t67 -96.5t132 -30t131.5 30.5z" />
    <glyph glyph-name="P" unicode="P" horiz-adv-x="595" 
d="M90 697h254q110 0 161 -53t51 -164q0 -117 -52.5 -174.5t-159.5 -57.5h-204v-248h-50v697zM343 295q160 0 160 185q0 88 -38 129.5t-122 41.5h-203v-356h203z" />
    <glyph glyph-name="Q" unicode="Q" horiz-adv-x="663" 
d="M433 2q-44 -11 -101 -11q-103 0 -161.5 37t-83 114t-24.5 204q0 126 25.5 204.5t84 117t159.5 38.5q100 0 159 -38.5t85 -117t26 -204.5q0 -137 -26.5 -213.5t-92.5 -111.5l86 -138l-49 -23zM464.5 66.5q46.5 30.5 65.5 96t19 180.5t-19.5 183.5t-67 101.5t-130.5 33
q-84 0 -131.5 -32.5t-67 -100.5t-19.5 -182q0 -117 20 -183.5t67 -96.5t132 -30t131.5 30.5z" />
    <glyph glyph-name="R" unicode="R" horiz-adv-x="614" 
d="M90 697h252q108 0 160.5 -49.5t52.5 -154.5q0 -172 -139 -203l149 -290h-56l-145 281h-224v-281h-50v697zM343 327q160 0 160 162q0 83 -39.5 122.5t-121.5 39.5h-202v-324h203z" />
    <glyph glyph-name="S" unicode="S" horiz-adv-x="541" 
d="M94 6l-36 4l5 46q138 -18 208 -18q166 0 166 161q0 44 -13 68.5t-48.5 40t-105.5 27.5q-84 15 -129.5 35t-66.5 57t-21 102q0 90 53.5 134.5t165.5 44.5q82 0 202 -17l-5 -46q-142 17 -196 17q-168 0 -168 -130q0 -52 12.5 -77t49.5 -40t122 -32q76 -14 118 -33.5
t61.5 -53.5t19.5 -92q0 -108 -52 -160t-163 -52q-67 0 -179 14z" />
    <glyph glyph-name="T" unicode="T" horiz-adv-x="526" 
d="M239 651h-226v46h500v-46h-224v-651h-50v651z" />
    <glyph glyph-name="U" unicode="U" horiz-adv-x="640" 
d="M142.5 41q-57.5 50 -57.5 160v496h51v-497q0 -164 180 -164q96 0 142.5 39t46.5 125v497h49v-496q0 -110 -58.5 -160t-177.5 -50q-118 0 -175.5 50z" />
    <glyph glyph-name="V" unicode="V" horiz-adv-x="573" 
d="M27 697h52l177 -652h61l177 652h51l-191 -697h-136z" />
    <glyph glyph-name="W" unicode="W" horiz-adv-x="867" 
d="M35 697h52l132 -651h35l150 643h59l150 -643h35l132 651h51l-145 -697h-111l-142 623l-141 -623h-111z" />
    <glyph glyph-name="X" unicode="X" horiz-adv-x="553" 
d="M245 345l-222 352h59l196 -316l196 316h57l-220 -353l220 -344h-58l-195 310l-198 -310h-57z" />
    <glyph glyph-name="Y" unicode="Y" horiz-adv-x="530" 
d="M240 298l-226 399h59l192 -347l192 347h59l-225 -399v-298h-51v298z" />
    <glyph glyph-name="Z" unicode="Z" horiz-adv-x="538" 
d="M44 75l394 553v24h-394v45h450v-77l-396 -554v-21h396v-46h-450v76z" />
    <glyph glyph-name="bracketleft" unicode="[" horiz-adv-x="318" 
d="M84 749h192v-44h-143v-784h143v-44h-192v872z" />
    <glyph glyph-name="backslash" unicode="\" horiz-adv-x="409" 
d="M29 684l47 19l303 -689l-46 -18z" />
    <glyph glyph-name="bracketright" unicode="]" horiz-adv-x="318" 
d="M42 -123v44h142v784h-142v44h192v-872h-192z" />
    <glyph glyph-name="asciicircum" unicode="^" 
d="M255 660h47l189 -338h-54l-157 288l-152 -288h-54z" />
    <glyph glyph-name="underscore" unicode="_" horiz-adv-x="637" 
d="M105 -100h428v-45h-428v45z" />
    <glyph glyph-name="grave" unicode="`" horiz-adv-x="222" 
d="M6 692l20 42l200 -96l-17 -35z" />
    <glyph glyph-name="a" unicode="a" horiz-adv-x="497" 
d="M79.5 29q-34.5 38 -34.5 107t34 104.5t109 44.5l179 18v48q0 58 -24.5 85.5t-67.5 27.5q-44 0 -82 -3t-119 -12l-3 41q108 19 192 19q79 0 116 -38t37 -120v-277q1 -16 19 -27t50 -15l-2 -41q-36 0 -64.5 11t-44.5 31q-94 -42 -194 -42q-66 0 -100.5 38zM340 62l27 9v191
l-173 -17q-52 -4 -74.5 -29t-22.5 -74q0 -108 87 -108q78 0 156 28z" />
    <glyph glyph-name="b" unicode="b" horiz-adv-x="518" 
d="M100 -2l-24 3v725h48v-255q82 38 167 38q65 0 102 -25t53 -80t16 -150q0 -105 -21 -160.5t-72.5 -78.5t-149.5 -23q-61 0 -119 6zM345 57q38 22 52.5 69t14.5 131q0 79 -12 124t-40 64.5t-79 19.5q-64 0 -157 -36v-389q82 -5 110 -5q73 0 111 22z" />
    <glyph glyph-name="c" unicode="c" horiz-adv-x="432" 
d="M136 17q-43 26 -61 82t-18 151q0 72 11 126.5t52 94.5t124 40q31 0 61 -2.5t84 -11.5l-3 -41q-79 9 -122 9q-61 0 -94.5 -19.5t-47.5 -66t-14 -132.5q0 -81 13.5 -126t48 -65.5t99.5 -20.5l119 9l2 -42q-91 -11 -134 -11q-77 0 -120 26z" />
    <glyph glyph-name="d" unicode="d" horiz-adv-x="520" 
d="M95 51.5q-40 60.5 -40 188.5q0 97 21.5 155.5t69 86t127.5 27.5q63 0 122 -12v229h48v-726h-49v40q-78 -49 -167 -49q-92 0 -132 60.5zM310 46.5q40 11.5 62 23.5l23 11v372q-66 13 -124 13q-63 0 -98.5 -23t-50.5 -70t-15 -126q0 -106 28.5 -159t98.5 -53q36 0 76 11.5z
" />
    <glyph glyph-name="e" unicode="e" horiz-adv-x="503" 
d="M101.5 50q-45.5 59 -45.5 187q0 139 49.5 205.5t155.5 66.5q98 0 145 -57.5t47 -179.5l-1 -42h-346q-1 -72 14 -114.5t51.5 -62t101.5 -19.5q27 0 63.5 1.5t67.5 4.5l30 3l2 -41q-104 -11 -177 -11q-112 0 -157.5 59zM403 272q0 104 -34 149.5t-108 45.5
q-77 0 -116 -47.5t-40 -147.5h298z" />
    <glyph glyph-name="f" unicode="f" horiz-adv-x="320" 
d="M96 456h-67v44h67v55q0 70 12.5 109t40.5 55t77 16l96 -6l-1 -40q-70 1 -84 1.5t-18 0.5q-44 0 -59 -33t-15 -104v-54h156v-44h-156v-456h-49v456z" />
    <glyph glyph-name="g" unicode="g" horiz-adv-x="505" 
d="M131.5 -221.5q-42.5 15.5 -59 47.5t-16.5 87q0 35 7.5 55t22.5 34.5t52 42.5q-12 8 -18 25.5t-6 37.5q0 13 5.5 28t25.5 54q-83 29 -83 151q0 86 43 127.5t137 41.5q47 0 102 -13l142 4v-46h-103q37 -31 37 -115q0 -89 -43.5 -126.5t-140.5 -37.5q-32 0 -53 4
q-2 -4 -3.5 -9.5t-4.5 -10.5q-6 -15 -10 -27.5t-4 -22.5q0 -29 21.5 -38t66.5 -9h47q61 1 99 -9t59 -40.5t21 -88.5q0 -85 -50.5 -123.5t-172.5 -38.5q-78 0 -120.5 15.5zM341 245q29 28 29 98q0 69 -29 97t-98 28q-72 0 -102 -28.5t-30 -97.5t29.5 -97t100.5 -28t100 28z
M357 -183.5q36 11.5 51.5 38t15.5 71.5q0 38 -10.5 57.5t-39 28t-85.5 7.5l-116 4q-42 -29 -55 -48.5t-13 -57.5q0 -43 14 -67t46.5 -34.5t92.5 -10.5q63 0 99 11.5z" />
    <glyph glyph-name="h" unicode="h" horiz-adv-x="530" 
d="M76 726h50v-256q85 39 169 39q66 0 101 -22.5t49 -75t14 -150.5v-261h-50v259q0 86 -9.5 129t-35.5 60t-79 17q-66 0 -138 -28l-21 -8v-429h-50v726z" />
    <glyph glyph-name="i" unicode="i" horiz-adv-x="201" 
d="M76 0zM76 500h48v-500h-48v500zM76 700h48v-66h-48v66z" />
    <glyph glyph-name="j" unicode="j" horiz-adv-x="202" 
d="M0 0zM-56 -180q58 32 85.5 55.5t37.5 52.5t10 80v492h48v-493q0 -60 -13.5 -97.5t-47 -66.5t-99.5 -63zM77 700h48v-66h-48v66z" />
    <glyph glyph-name="k" unicode="k" horiz-adv-x="463" 
d="M76 726h50v-435l89 1l163 208h56l-177 -227l184 -273h-56l-170 248h-89v-248h-50v726z" />
    <glyph glyph-name="l" unicode="l" horiz-adv-x="214" 
d="M82 726h50v-726h-50v726z" />
    <glyph glyph-name="m" unicode="m" horiz-adv-x="835" 
d="M76 500h49v-38q77 47 162 47q95 0 128 -53q32 21 86 37t110 16q60 0 93 -24t46 -77t13 -147v-261h-49v260q0 83 -9 125.5t-33 61t-72 18.5q-43 0 -85 -11t-62 -23l-21 -11q17 -14 17 -160v-260h-50v258q0 82 -9 125.5t-32.5 62.5t-69.5 19q-40 0 -81 -10.5t-62 -23.5
l-19 -11v-420h-50v500z" />
    <glyph glyph-name="n" unicode="n" horiz-adv-x="530" 
d="M76 500h49v-38q48 26 89 36.5t85 10.5q64 0 98.5 -22.5t48 -75t13.5 -150.5v-261h-48v260q0 81 -9.5 124t-33.5 62t-71 19q-41 0 -84 -11t-65 -23l-22 -11v-420h-50v500z" />
    <glyph glyph-name="o" unicode="o" horiz-adv-x="526" 
d="M136.5 15.5q-44.5 24.5 -62.5 79t-18 150.5q0 101 19 157.5t63.5 81.5t124.5 25q81 0 125.5 -25.5t63 -82t18.5 -156.5q0 -96 -17.5 -150.5t-62 -79t-127.5 -24.5q-82 0 -126.5 24.5zM362.5 55q32.5 20 44.5 63.5t12 126.5q0 88 -13 134.5t-45.5 66t-95.5 19.5
q-64 0 -97.5 -19.5t-46.5 -66t-13 -134.5q0 -82 12 -126t45.5 -64t99.5 -20q65 0 97.5 20z" />
    <glyph glyph-name="p" unicode="p" horiz-adv-x="520" 
d="M76 500h49v-40q81 49 166 49q92 0 132.5 -60t40.5 -193q0 -95 -21 -152.5t-69 -85t-129 -27.5q-61 0 -119 12v-230h-50v727zM377 85.5q37 51.5 37 166.5q0 114 -31.5 163.5t-93.5 49.5q-34 0 -74.5 -11.5t-66.5 -24.5l-22 -13v-369q88 -13 126 -13q88 0 125 51.5z" />
    <glyph glyph-name="q" unicode="q" horiz-adv-x="519" 
d="M393 26q-72 -35 -155 -35q-98 0 -140.5 59t-42.5 193q0 96 22 154t72 85t137 27l155 -9v-727h-48v253zM373 62l20 9v388q-67 7 -109 7q-69 0 -107.5 -23.5t-54.5 -71.5t-16 -129q0 -75 13.5 -120t43.5 -66t81 -21q63 0 129 27z" />
    <glyph glyph-name="r" unicode="r" horiz-adv-x="335" 
d="M76 500h49v-74q85 62 193 85v-51q-41 -8 -91.5 -28t-73.5 -36l-27 -15v-381h-50v500z" />
    <glyph glyph-name="s" unicode="s" horiz-adv-x="462" 
d="M85 3l-30 5l4 44q113 -17 171 -17q70 0 103 24t33 77q0 38 -16.5 57.5t-42 27.5t-70.5 14q-7 2 -23 4q-65 11 -100 25t-50 38t-15 65q0 79 47.5 110t137.5 31q80 0 139 -10l26 -5l-2 -43q-102 16 -165 16q-70 0 -101.5 -23t-31.5 -69q0 -32 15 -49t39.5 -24.5t71.5 -15.5
q7 -2 21 -4q66 -12 100.5 -25.5t52 -39.5t17.5 -74q0 -80 -46.5 -115.5t-143.5 -35.5q-61 0 -141 12z" />
    <glyph glyph-name="t" unicode="t" horiz-adv-x="345" 
d="M156 5q-27 16 -39 54.5t-12 109.5v287h-76v44h76v159h48v-159h175v-44h-175v-253q0 -69 5 -102.5t22.5 -50.5t57.5 -17l95 8l4 -42q-70 -10 -106 -10q-48 0 -75 16z" />
    <glyph glyph-name="u" unicode="u" horiz-adv-x="521" 
d="M132 13q-34 22 -47.5 74.5t-13.5 151.5v261h50v-258q0 -84 9 -127.5t33 -61.5t72 -18q84 0 161 45v420h49v-500h-50v38q-40 -24 -77.5 -35.5t-87.5 -11.5q-64 0 -98 22z" />
    <glyph glyph-name="v" unicode="v" horiz-adv-x="474" 
d="M29 500h54l133 -456h41l137 456h52l-150 -500h-117z" />
    <glyph glyph-name="w" unicode="w" horiz-adv-x="758" 
d="M34 500h50l119 -456h12l138 446h52l137 -446h14l117 456h51l-130 -500h-88l-127 428l-127 -428h-89z" />
    <glyph glyph-name="x" unicode="x" horiz-adv-x="442" 
d="M191 250l-166 250h56l140 -214l140 214h56l-167 -249l165 -251h-55l-139 213l-140 -213h-56z" />
    <glyph glyph-name="y" unicode="y" horiz-adv-x="476" 
d="M244 0h-65l-150 500h50l140 -456h37l141 456h51l-222 -727h-51z" />
    <glyph glyph-name="z" unicode="z" horiz-adv-x="455" 
d="M42 44l311 412h-311v44h371v-44l-310 -412h310v-44h-371v44z" />
    <glyph glyph-name="braceleft" unicode="{" horiz-adv-x="348" 
d="M166.5 -80q-41.5 41 -41.5 131l7 122q0 46 -24 73.5t-81 43.5v42q57 13 81 40.5t24 75.5l-7 128q0 91 41.5 131.5t138.5 44.5l1 -43q-74 -4 -103 -35t-29 -99l7 -121q0 -64 -22 -94t-80 -49q57 -18 79 -49t22 -93l-7 -115q0 -68 29.5 -100t104.5 -36l-3 -43
q-96 4 -137.5 45z" />
    <glyph glyph-name="bar" unicode="|" horiz-adv-x="214" 
d="M83 726h48v-953h-48v953z" />
    <glyph glyph-name="braceright" unicode="}" horiz-adv-x="348" 
d="M41 -82q75 4 104.5 36t29.5 100l-7 115q0 62 22 93t79 49q-58 19 -79.5 49t-21.5 94l7 121q0 68 -29.5 99t-103.5 35l1 43q97 -4 138.5 -44.5t41.5 -131.5l-7 -128q0 -48 24 -75.5t81 -40.5v-42q-57 -16 -81 -43.5t-24 -73.5l7 -122q0 -90 -41.5 -131t-137.5 -45z" />
    <glyph glyph-name="asciitilde" unicode="~" 
d="M277 241q-76 35 -92 35q-17 0 -42 -11.5t-45 -26.5l-17 -13l-11 43q61 53 113 53q29 0 104 -33q70 -35 91 -35q36 0 88 36l17 13l11 -41q-36 -30 -63.5 -42.5t-53.5 -12.5q-29 0 -100 35z" />
    <glyph glyph-name="uni00A0" unicode="&#xa0;" horiz-adv-x="220" 
 />
    <glyph glyph-name="exclamdown" unicode="&#xa1;" horiz-adv-x="212" 
d="M133 500v-91h-55v91h55zM128 282l1 -479h-50l2 479h47z" />
    <glyph glyph-name="cent" unicode="&#xa2;" 
d="M281 39q-64 3 -101.5 22.5t-55 63t-17.5 120.5q0 112 41.5 162.5t132.5 55.5v125h46v-128l111 -11l-3 -43q-80 9 -129 9q-56 0 -87.5 -16.5t-45 -52.5t-13.5 -99t13 -97.5t45 -49t91 -14.5l127 8l3 -44q-77 -10 -112 -10v-124h-46v123z" />
    <glyph glyph-name="sterling" unicode="&#xa3;" 
d="M82 45h90v321h-68v44h68v53q0 83 13 127t43 62t84 18q40 0 102 -10l22 -4l1 -43q-93 13 -124 13q-38 0 -58 -14t-28 -49t-8 -104v-49h179v-44h-179v-321h167l81 16l9 -43l-82 -18h-312v45z" />
    <glyph glyph-name="currency" unicode="&#xa4;" 
d="M70 78l69 69q-33 50 -33 104t33 106l-69 69l36 36l69 -70q44 34 104 34q57 0 106 -34l69 70l36 -36l-70 -69q34 -49 34 -106q0 -60 -34 -104l70 -69l-36 -36l-69 70q-49 -34 -106 -34q-60 0 -104 34l-69 -70zM343.5 141.5q29.5 17.5 47 47t17.5 63.5t-17.5 63.5t-47 47
t-63.5 17.5t-63.5 -17.5t-47 -47t-17.5 -63.5q0 -52 38 -90t90 -38q34 0 63.5 17.5z" />
    <glyph glyph-name="yen" unicode="&#xa5;" 
d="M256 176h-198v44h198v105h-199v45h160l-186 290h57l193 -296l191 296h57l-183 -290h156v-45h-195v-105h196v-44h-196v-176h-51v176z" />
    <glyph glyph-name="brokenbar" unicode="&#xa6;" horiz-adv-x="218" 
d="M85 726h48v-375h-48v375zM85 150h48v-377h-48v377z" />
    <glyph glyph-name="section" unicode="&#xa7;" horiz-adv-x="491" 
d="M104 -123l-30 5l5 43q110 -15 165 -15q65 0 99 30t34 88q0 51 -31 70q-29 16 -118 31q-90 14 -129.5 45.5t-39.5 98.5q0 36 19.5 73t35.5 50q-44 32 -44 112q0 149 181 149q53 0 134 -11l25 -3l-3 -44q-108 15 -165 15q-59 0 -91.5 -26t-32.5 -78q0 -40 10.5 -60.5
t41 -32.5t97.5 -23q88 -14 125 -44t37 -96q0 -67 -41 -129q17 -14 26.5 -40t9.5 -56q0 -79 -46 -120.5t-133 -41.5q-71 0 -141 10zM368 188.5q11 35.5 11 70.5q0 28 -12.5 45.5t-42 29t-84.5 21.5q-40 6 -57 10t-36 12q-39 -69 -39 -108q0 -42 31 -64t110 -35
q84 -16 102 -25q6 8 17 43.5z" />
    <glyph glyph-name="dieresis" unicode="&#xa8;" horiz-adv-x="222" 
d="M-4 704h48v-72h-48v72zM189 704h49v-72h-49v72z" />
    <glyph glyph-name="copyright" unicode="&#xa9;" horiz-adv-x="646" 
d="M192 201.5q-59 35.5 -93 97t-34 136.5q0 74 33.5 135t92.5 96.5t132 35.5q72 0 131 -36t93 -97.5t34 -135.5t-33.5 -135t-92 -96.5t-131.5 -35.5t-132 35.5zM435 233.5q51 30.5 80.5 83.5t29.5 117t-29 117.5t-80 84.5t-113 31q-95 0 -159 -68q-63 -69 -63 -165
q0 -64 29 -117t79.5 -83.5t112.5 -30.5t113 30.5zM237.5 316q-25.5 37 -25.5 118q0 80 25.5 117t86.5 37q41 0 66 -5l10 -3l-3 -39q-39 6 -77 6q-37 0 -51 -25t-14 -87q0 -64 14.5 -89.5t56.5 -25.5l71 7l3 -39q-42 -9 -73 -9q-64 0 -89.5 37z" />
    <glyph glyph-name="ordfeminine" unicode="&#xaa;" horiz-adv-x="378" 
d="M79 391q-22 23 -22 64q0 77 88 83l93 6v22q0 26 -11.5 36.5t-38.5 10.5l-111 -7l-2 40q66 13 118 13q49 0 73 -22t24 -73v-136q8 -13 32 -19l-2 -41q-48 0 -72 24q-59 -24 -103 -24t-66 23zM224 426l14 5v73l-84 -5q-44 -3 -44 -44q0 -42 38 -42q36 0 76 13z" />
    <glyph glyph-name="guillemotleft" unicode="&#xab;" horiz-adv-x="512" 
d="M47 228v45l174 134v-52l-130 -102l130 -114v-53zM266 228v45l174 134v-52l-131 -102l131 -114v-53z" />
    <glyph glyph-name="logicalnot" unicode="&#xac;" 
d="M445 290h-377v45h425v-212h-48v167z" />
    <glyph glyph-name="registered" unicode="&#xae;" horiz-adv-x="646" 
d="M192 202q-59 36 -93 97.5t-34 135.5t33.5 135t92.5 96.5t132 35.5t132 -35t92.5 -96t33.5 -136t-33.5 -136.5t-92.5 -97t-131 -35.5q-73 0 -132 36zM436 233.5q51 30.5 80 83.5t29 117t-29 117.5t-80 84.5t-113 31q-61 0 -112 -30.5t-80.5 -84t-29.5 -117.5t29 -117
t80 -84t113 -31t113 30.5zM218 582h99q59 0 86.5 -20t27.5 -64q0 -42 -13 -63.5t-44 -32.5l61 -117h-44l-59 113h-72v-113h-42v297zM331 434q32 0 45.5 13t13.5 43q0 56 -74 56h-57v-112h72z" />
    <glyph glyph-name="macron" unicode="&#xaf;" horiz-adv-x="222" 
d="M-18 677h270v-41h-270v41z" />
    <glyph glyph-name="degree" unicode="&#xb0;" 
d="M180 469.5q-39 37.5 -39 99.5q0 61 38.5 99t100.5 38t100.5 -38t38.5 -99t-38.5 -99t-100.5 -38q-61 0 -100 37.5zM352.5 496.5q27.5 27.5 27.5 72.5t-28 72.5t-72 27.5t-71 -27.5t-27 -72.5q0 -46 27 -73t71 -27q45 0 72.5 27.5z" />
    <glyph glyph-name="plusminus" unicode="&#xb1;" 
d="M255 303h-198v45h198v134h48v-134h200v-45h-200v-139h-48v139zM57 92h446v-46h-446v46z" />
    <glyph glyph-name="uni00B2" unicode="&#xb2;" horiz-adv-x="280" 
d="M34 518l94 99q54 54 54 94q0 47 -55 47l-89 -11l-1 39q54 14 99 14q92 0 92 -92q0 -28 -14.5 -53.5t-49.5 -59.5l-73 -75h142v-42h-199v40z" />
    <glyph glyph-name="uni00B3" unicode="&#xb3;" horiz-adv-x="280" 
d="M34 479l3 40q67 -9 110 -9q52 0 52 55q0 54 -56 54h-64v39h65q17 0 31.5 17.5t14.5 39.5q0 43 -53 43l-96 -8l-3 39q51 11 100 11q98 0 98 -82q0 -50 -44 -75q29 -9 41 -25.5t12 -55.5q0 -94 -101 -94z" />
    <glyph glyph-name="acute" unicode="&#xb4;" horiz-adv-x="268" 
d="M35 638l201 96l19 -42l-203 -89z" />
    <glyph glyph-name="uni00B5" unicode="&#xb5;" 
d="M93 500h50v-247q-1 -92 8 -137t34 -63t78 -18q34 0 73.5 11t60.5 23l20 11v420h50v-500h-50v38q-77 -47 -146 -47q-85 0 -128 23v-241h-50v727z" />
    <glyph glyph-name="paragraph" unicode="&#xb6;" horiz-adv-x="590" 
d="M231 340h-7q-53 0 -95 22.5t-66.5 63t-24.5 92.5q0 51 24.5 92t67 64t95.5 23h328v-44h-88v-653h-48v653h-139v-653h-47v340z" />
    <glyph glyph-name="periodcentered" unicode="&#xb7;" horiz-adv-x="200" 
d="M72 347h55v-91h-55v91z" />
    <glyph glyph-name="cedilla" unicode="&#xb8;" horiz-adv-x="263" 
d="M58 -203l-11 2l3 35q37 -4 74 -4q46 0 46 43q0 39 -46 39h-50v89h36v-55q58 0 81.5 -15.5t23.5 -56.5t-21 -61t-64 -20q-36 0 -72 4z" />
    <glyph glyph-name="uni00B9" unicode="&#xb9;" horiz-adv-x="280" 
d="M139 740l-77 -53l-20 35l98 68h45v-312h-46v262z" />
    <glyph glyph-name="ordmasculine" unicode="&#xba;" horiz-adv-x="363" 
d="M59 520q0 73 30.5 106t92.5 33t91.5 -33t29.5 -106q0 -144 -121 -144q-123 0 -123 144zM239.5 441.5q16.5 23.5 16.5 78.5q0 53 -16.5 75t-57.5 22t-58.5 -22.5t-17.5 -74.5q0 -55 17.5 -78.5t58.5 -23.5t57.5 23.5z" />
    <glyph glyph-name="guillemotright" unicode="&#xbb;" horiz-adv-x="511" 
d="M72 139l131 114l-131 102v52l174 -134v-45l-174 -142v53zM291 139l130 114l-130 102v52l174 -134v-45l-174 -142v53z" />
    <glyph glyph-name="onequarter" unicode="&#xbc;" 
d="M202 637l-17 -27v-132h-46v58l-330 -529l-33 21l363 585v127l-77 -53l-20 35l98 68h45v-141zM532 -4v-42h-34v-54h-45v54h-145v39l82 219h50l-83 -216h96l1 88h44v-88h34z" />
    <glyph glyph-name="onehalf" unicode="&#xbd;" 
d="M202 637l-17 -27v-132h-46v58l-330 -529l-33 21l363 585v127l-77 -53l-20 35l98 68h45v-141zM513 -58v-42h-199v40l94 99q54 54 54 94q0 47 -55 47l-89 -11l-1 39q54 14 99 14q92 0 92 -92q0 -28 -14.5 -53.5t-49.5 -59.5l-73 -75h142z" />
    <glyph glyph-name="threequarters" unicode="&#xbe;" 
d="M0 0zM-224 28l392 632l34 -23l-393 -630zM173 -46h-145v39l82 219h50l-83 -216h96l1 88h44v-88h34v-42h-34v-54h-45v54zM314 479l3 40q67 -9 110 -9q52 0 52 55q0 54 -56 54h-64v39h65q17 0 31.5 17.5t14.5 39.5q0 43 -53 43l-96 -8l-3 39q51 11 100 11q98 0 98 -82
q0 -50 -44 -75q29 -9 41 -25.5t12 -55.5q0 -94 -101 -94z" />
    <glyph glyph-name="questiondown" unicode="&#xbf;" horiz-adv-x="444" 
d="M285 409h-55v91h55v-91zM284 259q0 -38 -23.5 -70t-87.5 -89q-37 -33 -54 -54t-22.5 -42.5t-5.5 -57.5q0 -54 36.5 -80t116.5 -26q35 0 160 26l4 -44q-106 -27 -160 -27q-107 0 -156.5 37.5t-49.5 123.5q0 41 7.5 67t26.5 49t57 56q61 52 81.5 80.5t20.5 61.5v37h44
q5 -27 5 -48z" />
    <glyph glyph-name="Agrave" unicode="&#xc0;" horiz-adv-x="593" 
d="M27 0zM172 882l20 43l200 -97l-18 -36zM457 202h-321l-60 -202h-49l206 697h127l206 -697h-49zM323 652h-52l-122 -403h295z" />
    <glyph glyph-name="Aacute" unicode="&#xc1;" horiz-adv-x="593" 
d="M27 0zM457 202h-321l-60 -202h-49l206 697h127l206 -697h-49zM323 652h-52l-122 -403h295zM197 828l200 97l20 -43l-202 -90z" />
    <glyph glyph-name="Acircumflex" unicode="&#xc2;" horiz-adv-x="593" 
d="M27 0zM457 202h-321l-60 -202h-49l206 697h127l206 -697h-49zM323 652h-52l-122 -403h295zM274 931h42l134 -129h-58l-97 91l-96 -91h-59z" />
    <glyph glyph-name="Atilde" unicode="&#xc3;" horiz-adv-x="593" 
d="M27 0zM457 202h-321l-60 -202h-49l206 697h127l206 -697h-49zM323 652h-52l-122 -403h295zM293 851q-58 29 -74 29q-22 0 -59 -38l-12 -13l-12 39q20 23 43 39t43 16q21 0 81 -28q59 -29 70 -29q19 0 55 36l11 12l13 -39q-26 -32 -43.5 -42t-35.5 -10q-21 0 -80 28z" />
    <glyph glyph-name="Adieresis" unicode="&#xc4;" horiz-adv-x="593" 
d="M27 0zM457 202h-321l-60 -202h-49l206 697h127l206 -697h-49zM323 652h-52l-122 -403h295zM172 899h49v-72h-49v72zM370 899h48v-72h-48v72z" />
    <glyph glyph-name="Aring" unicode="&#xc5;" horiz-adv-x="593" 
d="M457 202h-321l-60 -202h-49l200 677q-37 25 -37 77q0 44 29 70t77 26t76 -25.5t28 -70.5q0 -50 -34 -76l200 -678h-49zM247.5 798.5q-15.5 -14.5 -15.5 -44.5q0 -23 11.5 -38t32.5 -19h39q21 4 32.5 19t11.5 38q0 27 -16.5 43t-46.5 16q-33 0 -48.5 -14.5zM149 249h295
l-121 403h-52z" />
    <glyph glyph-name="AE" unicode="&#xc6;" horiz-adv-x="878" 
d="M265 699h564v-48h-364v-268h304v-47h-304v-289h364v-47h-414v201h-268l-70 -201h-54zM415 249l1 402h-113l-140 -402h252z" />
    <glyph glyph-name="Ccedilla" unicode="&#xc7;" horiz-adv-x="544" 
d="M325 -9v-45q58 0 81.5 -15.5t23.5 -56.5t-21 -61t-64 -20q-36 0 -72 4l-11 2l3 35q37 -4 74 -4q46 0 46 43q0 39 -46 39h-50v80q-91 7 -140 49t-67 116.5t-18 192.5q0 120 19.5 195.5t76 118t162.5 42.5q76 0 180 -19l-3 -46q-98 19 -179 19q-85 0 -128 -30.5t-59 -99.5
t-16 -199q0 -105 15.5 -166.5t62.5 -94.5t139 -33q72 0 165 20l3 -46q-97 -20 -177 -20z" />
    <glyph glyph-name="Egrave" unicode="&#xc8;" horiz-adv-x="553" 
d="M90 0zM140 652v-274h303v-45h-303v-288h363v-45h-413v697h413v-45h-363zM182 882l20 43l200 -97l-18 -36z" />
    <glyph glyph-name="Eacute" unicode="&#xc9;" horiz-adv-x="553" 
d="M90 0zM140 652v-274h303v-45h-303v-288h363v-45h-413v697h413v-45h-363zM186 828l200 97l20 -43l-202 -90z" />
    <glyph glyph-name="Ecircumflex" unicode="&#xca;" horiz-adv-x="553" 
d="M90 0zM140 652v-274h303v-45h-303v-288h363v-45h-413v697h413v-45h-363zM271 931h42l134 -129h-58l-97 91l-96 -91h-59z" />
    <glyph glyph-name="Edieresis" unicode="&#xcb;" horiz-adv-x="553" 
d="M90 0zM140 652v-274h303v-45h-303v-288h363v-45h-413v697h413v-45h-363zM172 899h49v-72h-49v72zM370 899h48v-72h-48v72z" />
    <glyph glyph-name="Igrave" unicode="&#xcc;" horiz-adv-x="229" 
d="M0 0zM90 697h50v-697h-50v697zM-19 882l20 43l200 -97l-18 -36z" />
    <glyph glyph-name="Iacute" unicode="&#xcd;" horiz-adv-x="229" 
d="M14 0zM90 697h50v-697h-50v697zM14 828l200 97l20 -43l-202 -90z" />
    <glyph glyph-name="Icircumflex" unicode="&#xce;" horiz-adv-x="229" 
d="M0 0zM90 697h50v-697h-50v697zM88 931h42l134 -129h-58l-97 91l-96 -91h-59z" />
    <glyph glyph-name="Idieresis" unicode="&#xcf;" horiz-adv-x="229" 
d="M0 0zM90 697h50v-697h-50v697zM-9 899h49v-72h-49v72zM189 899h48v-72h-48v72z" />
    <glyph glyph-name="Eth" unicode="&#xd0;" horiz-adv-x="649" 
d="M92 326h-74v47h74v326h256q123 0 182 -89.5t59 -249.5q0 -180 -65.5 -270t-175.5 -90h-256v326zM348 48q91 0 139.5 83.5t48.5 229.5q0 147 -51 218.5t-137 71.5h-206v-278h170v-47h-170v-278h206z" />
    <glyph glyph-name="Ntilde" unicode="&#xd1;" horiz-adv-x="669" 
d="M90 0zM579 697v-697h-104l-316 652h-19v-652h-50v697h105l313 -652h22v652h49zM332 851q-58 29 -74 29q-22 0 -59 -38l-12 -13l-12 39q20 23 43 39t43 16q21 0 81 -28q59 -29 70 -29q19 0 55 36l11 12l13 -39q-26 -32 -43.5 -42t-35.5 -10q-21 0 -80 28z" />
    <glyph glyph-name="Ograve" unicode="&#xd2;" horiz-adv-x="663" 
d="M63 0zM171 28q-59 37 -83.5 114t-24.5 204q0 126 25.5 204.5t84 117t159.5 38.5q100 0 159 -38.5t85 -117.5t26 -207q0 -130 -25 -206t-83 -111t-161 -35t-162 37zM464.5 66.5q46.5 30.5 65.5 96t19 180.5t-19.5 183.5t-67 101.5t-130.5 33q-84 0 -131.5 -32.5
t-67 -100.5t-19.5 -182q0 -117 20 -183.5t67 -96.5t132 -30t131.5 30.5zM217 882l20 43l200 -97l-18 -36z" />
    <glyph glyph-name="Oacute" unicode="&#xd3;" horiz-adv-x="663" 
d="M63 0zM171 28q-59 37 -83.5 114t-24.5 204q0 126 25.5 204.5t84 117t159.5 38.5q100 0 159 -38.5t85 -117.5t26 -207q0 -130 -25 -206t-83 -111t-161 -35t-162 37zM464.5 66.5q46.5 30.5 65.5 96t19 180.5t-19.5 183.5t-67 101.5t-130.5 33q-84 0 -131.5 -32.5
t-67 -100.5t-19.5 -182q0 -117 20 -183.5t67 -96.5t132 -30t131.5 30.5zM212 828l200 97l20 -43l-202 -90z" />
    <glyph glyph-name="Ocircumflex" unicode="&#xd4;" horiz-adv-x="663" 
d="M63 0zM171 28q-59 37 -83.5 114t-24.5 204q0 126 25.5 204.5t84 117t159.5 38.5q100 0 159 -38.5t85 -117.5t26 -207q0 -130 -25 -206t-83 -111t-161 -35t-162 37zM464.5 66.5q46.5 30.5 65.5 96t19 180.5t-19.5 183.5t-67 101.5t-130.5 33q-84 0 -131.5 -32.5
t-67 -100.5t-19.5 -182q0 -117 20 -183.5t67 -96.5t132 -30t131.5 30.5zM311 931h42l134 -129h-58l-97 91l-96 -91h-59z" />
    <glyph glyph-name="Otilde" unicode="&#xd5;" horiz-adv-x="663" 
d="M63 0zM171 28q-59 37 -83.5 114t-24.5 204q0 126 25.5 204.5t84 117t159.5 38.5q100 0 159 -38.5t85 -117.5t26 -207q0 -130 -25 -206t-83 -111t-161 -35t-162 37zM464.5 66.5q46.5 30.5 65.5 96t19 180.5t-19.5 183.5t-67 101.5t-130.5 33q-84 0 -131.5 -32.5
t-67 -100.5t-19.5 -182q0 -117 20 -183.5t67 -96.5t132 -30t131.5 30.5zM328 851q-58 29 -74 29q-22 0 -59 -38l-12 -13l-12 39q20 23 43 39t43 16q21 0 81 -28q59 -29 70 -29q19 0 55 36l11 12l13 -39q-26 -32 -43.5 -42t-35.5 -10q-21 0 -80 28z" />
    <glyph glyph-name="Odieresis" unicode="&#xd6;" horiz-adv-x="663" 
d="M63 0zM171 28q-59 37 -83.5 114t-24.5 204q0 126 25.5 204.5t84 117t159.5 38.5q100 0 159 -38.5t85 -117.5t26 -207q0 -130 -25 -206t-83 -111t-161 -35t-162 37zM464.5 66.5q46.5 30.5 65.5 96t19 180.5t-19.5 183.5t-67 101.5t-130.5 33q-84 0 -131.5 -32.5
t-67 -100.5t-19.5 -182q0 -117 20 -183.5t67 -96.5t132 -30t131.5 30.5zM208 899h49v-72h-49v72zM406 899h48v-72h-48v72z" />
    <glyph glyph-name="multiply" unicode="&#xd7;" 
d="M261 255l165 -165l-32 -32l-165 165l-165 -165l-32 32l165 165l-165 165l32 32l165 -165l165 165l32 -32z" />
    <glyph glyph-name="Oslash" unicode="&#xd8;" horiz-adv-x="663" 
d="M106 -95l59 127q-56 39 -79 114t-23 200q0 126 25.5 204.5t84 117t159.5 38.5q83 0 137 -25l53 113l40 -16l-56 -121q96 -76 96 -311q0 -130 -24.5 -206.5t-83 -112.5t-162.5 -36q-76 0 -131 20l-56 -122zM449 637q-44 24 -117 24q-86 0 -132.5 -32.5t-66 -105
t-19.5 -201.5q0 -189 68 -251zM465.5 66q46.5 30 65 99.5t18.5 196.5q0 185 -63 255l-263 -562q44 -19 109 -19q87 0 133.5 30z" />
    <glyph glyph-name="Ugrave" unicode="&#xd9;" horiz-adv-x="640" 
d="M85 0zM142.5 41q-57.5 50 -57.5 160v496h51v-497q0 -164 180 -164q96 0 142.5 39t46.5 125v497h49v-496q0 -110 -58.5 -160t-177.5 -50q-118 0 -175.5 50zM205 882l20 43l200 -97l-18 -36z" />
    <glyph glyph-name="Uacute" unicode="&#xda;" horiz-adv-x="640" 
d="M85 0zM142.5 41q-57.5 50 -57.5 160v496h51v-497q0 -164 180 -164q96 0 142.5 39t46.5 125v497h49v-496q0 -110 -58.5 -160t-177.5 -50q-118 0 -175.5 50zM210 828l200 97l20 -43l-202 -90z" />
    <glyph glyph-name="Ucircumflex" unicode="&#xdb;" horiz-adv-x="640" 
d="M85 0zM142.5 41q-57.5 50 -57.5 160v496h51v-497q0 -164 180 -164q96 0 142.5 39t46.5 125v497h49v-496q0 -110 -58.5 -160t-177.5 -50q-118 0 -175.5 50zM298 931h42l134 -129h-58l-97 91l-96 -91h-59z" />
    <glyph glyph-name="Udieresis" unicode="&#xdc;" horiz-adv-x="640" 
d="M85 0zM142.5 41q-57.5 50 -57.5 160v496h51v-497q0 -164 180 -164q96 0 142.5 39t46.5 125v497h49v-496q0 -110 -58.5 -160t-177.5 -50q-118 0 -175.5 50zM196 899h49v-72h-49v72zM394 899h48v-72h-48v72z" />
    <glyph glyph-name="Yacute" unicode="&#xdd;" horiz-adv-x="530" 
d="M14 0zM240 298l-226 399h59l192 -347l192 347h59l-225 -399v-298h-51v298zM182 828l200 97l20 -43l-202 -90z" />
    <glyph glyph-name="Thorn" unicode="&#xde;" horiz-adv-x="600" 
d="M90 699h50v-118h204q109 0 161 -53t52 -165q0 -113 -53.5 -172.5t-159.5 -59.5h-204v-131h-50v699zM343 179q81 0 121 45.5t40 139.5q0 89 -38 128.5t-123 39.5h-203v-353h203z" />
    <glyph glyph-name="germandbls" unicode="&#xdf;" horiz-adv-x="558" 
d="M216 -1l-20 3l3 44q88 -10 117 -10q82 0 116 32.5t34 97.5q0 40 -8 61.5t-30.5 39.5t-73.5 42q-45 22 -67 37.5t-30.5 30.5t-8.5 37q0 30 16.5 46.5t57.5 35.5q39 17 50.5 38t11.5 69q0 46 -27 66.5t-101 20.5q-50 0 -77.5 -13t-40 -44.5t-12.5 -89.5v-543h-50v555
q0 68 18.5 107t57.5 56t105 17q96 0 137.5 -32.5t41.5 -105.5q0 -52 -18 -82t-57 -47q-35 -16 -48 -25.5t-13 -25.5q0 -4 -0.5 -10.5t26 -22t71.5 -43.5q68 -34 94.5 -67t26.5 -91q0 -103 -45.5 -147.5t-155.5 -44.5q-45 0 -101 8z" />
    <glyph glyph-name="agrave" unicode="&#xe0;" horiz-adv-x="497" 
d="M45 0zM79.5 29q-34.5 38 -34.5 107t34 104.5t109 44.5l179 18v48q0 58 -24.5 85.5t-67.5 27.5q-44 0 -82 -3t-119 -12l-3 41q108 19 192 19q79 0 116 -38t37 -120v-277q1 -16 19 -27t50 -15l-2 -41q-36 0 -64.5 11t-44.5 31q-94 -42 -194 -42q-66 0 -100.5 38zM340 62
l27 9v191l-173 -17q-52 -4 -74.5 -29t-22.5 -74q0 -108 87 -108q78 0 156 28zM129 692l20 42l200 -96l-17 -35z" />
    <glyph glyph-name="aacute" unicode="&#xe1;" horiz-adv-x="497" 
d="M45 0zM79.5 29q-34.5 38 -34.5 107t34 104.5t109 44.5l179 18v48q0 58 -24.5 85.5t-67.5 27.5q-44 0 -82 -3t-119 -12l-3 41q108 19 192 19q79 0 116 -38t37 -120v-277q1 -16 19 -27t50 -15l-2 -41q-36 0 -64.5 11t-44.5 31q-94 -42 -194 -42q-66 0 -100.5 38zM340 62
l27 9v191l-173 -17q-52 -4 -74.5 -29t-22.5 -74q0 -108 87 -108q78 0 156 28zM127 638l201 96l19 -42l-203 -89z" />
    <glyph glyph-name="acircumflex" unicode="&#xe2;" horiz-adv-x="497" 
d="M45 0zM79.5 29q-34.5 38 -34.5 107t34 104.5t109 44.5l179 18v48q0 58 -24.5 85.5t-67.5 27.5q-44 0 -82 -3t-119 -12l-3 41q108 19 192 19q79 0 116 -38t37 -120v-277q1 -16 19 -27t50 -15l-2 -41q-36 0 -64.5 11t-44.5 31q-94 -42 -194 -42q-66 0 -100.5 38zM340 62
l27 9v191l-173 -17q-52 -4 -74.5 -29t-22.5 -74q0 -108 87 -108q78 0 156 28zM222 732h37l122 -135h-54l-85 96l-88 -96h-54z" />
    <glyph glyph-name="atilde" unicode="&#xe3;" horiz-adv-x="497" 
d="M45 0zM79.5 29q-34.5 38 -34.5 107t34 104.5t109 44.5l179 18v48q0 58 -24.5 85.5t-67.5 27.5q-44 0 -82 -3t-119 -12l-3 41q108 19 192 19q79 0 116 -38t37 -120v-277q1 -16 19 -27t50 -15l-2 -41q-36 0 -64.5 11t-44.5 31q-94 -42 -194 -42q-66 0 -100.5 38zM340 62
l27 9v191l-173 -17q-52 -4 -74.5 -29t-22.5 -74q0 -108 87 -108q78 0 156 28zM241 650q-54 25 -68 25q-23 0 -60 -33l-13 -10l-13 36q25 27 45 37.5t40 10.5q21 0 75 -25q56 -25 66 -25q18 0 55 31l12 9l12 -36q-26 -28 -42.5 -37t-35.5 -9t-73 26z" />
    <glyph glyph-name="adieresis" unicode="&#xe4;" horiz-adv-x="497" 
d="M45 0zM79.5 29q-34.5 38 -34.5 107t34 104.5t109 44.5l179 18v48q0 58 -24.5 85.5t-67.5 27.5q-44 0 -82 -3t-119 -12l-3 41q108 19 192 19q79 0 116 -38t37 -120v-277q1 -16 19 -27t50 -15l-2 -41q-36 0 -64.5 11t-44.5 31q-94 -42 -194 -42q-66 0 -100.5 38zM340 62
l27 9v191l-173 -17q-52 -4 -74.5 -29t-22.5 -74q0 -108 87 -108q78 0 156 28zM123 704h48v-72h-48v72zM316 704h49v-72h-49v72z" />
    <glyph glyph-name="aring" unicode="&#xe5;" horiz-adv-x="497" 
d="M45 0zM79.5 29q-34.5 38 -34.5 107t34 104.5t109 44.5l179 18v48q0 58 -24.5 85.5t-67.5 27.5q-44 0 -82 -3t-119 -12l-3 41q108 19 192 19q79 0 116 -38t37 -120v-277q1 -16 19 -27t50 -15l-2 -41q-36 0 -64.5 11t-44.5 31q-94 -42 -194 -42q-66 0 -100.5 38zM340 62
l27 9v191l-173 -17q-52 -4 -74.5 -29t-22.5 -74q0 -108 87 -108q78 0 156 28zM183.5 579q-27.5 29 -27.5 70t27.5 69t67.5 28t67 -28t27 -69t-27 -70t-67 -29t-67.5 29zM293 605q17 18 17 44t-17 43.5t-42 17.5t-42.5 -17.5t-17.5 -43.5t17.5 -44t42.5 -18t42 18z" />
    <glyph glyph-name="ae" unicode="&#xe6;" horiz-adv-x="813" 
d="M77.5 29q-32.5 38 -32.5 114q0 51 17 79.5t55.5 43.5t111.5 23l138 14v48q0 57 -25 84t-76 27q-58 0 -160 -8l-30 -2l-3 46q129 12 190 12q112 0 141 -89q45 89 161 89q103 0 150.5 -57t47.5 -181l-1 -43h-346q0 -98 33.5 -146t101.5 -48q65 0 162 7l29 2l2 -42
q-102 -11 -199 -11q-86 0 -133 56l-36 -15q-86 -41 -204 -41q-62 0 -94.5 38zM713 272q0 104 -33.5 148.5t-108.5 44.5q-77 0 -116 -47t-39 -146h297zM256 43q41 9 72.5 20.5t35.5 17.5v179l-170 -16q-51 -5 -74 -29.5t-23 -74.5q0 -106 84 -106q34 0 75 9z" />
    <glyph glyph-name="ccedilla" unicode="&#xe7;" horiz-adv-x="432" 
d="M328.5 -69.5q23.5 -15.5 23.5 -56.5t-21 -61t-64 -20q-36 0 -72 4l-11 2l3 35q37 -4 74 -4q46 0 46 43q0 39 -46 39h-50v82q-59 7 -92.5 36t-47.5 82t-14 138q0 72 11 126.5t52 94.5t124 40q31 0 61 -2.5t84 -11.5l-3 -41q-79 9 -122 9q-61 0 -94.5 -19.5t-47.5 -66
t-14 -132.5q0 -81 13.5 -126t48 -65.5t99.5 -20.5l119 9l2 -42q-91 -11 -134 -11h-9v-45q58 0 81.5 -15.5z" />
    <glyph glyph-name="egrave" unicode="&#xe8;" horiz-adv-x="503" 
d="M56 0zM101.5 50q-45.5 59 -45.5 187q0 139 49.5 205.5t155.5 66.5q98 0 145 -57.5t47 -179.5l-1 -42h-346q-1 -72 14 -114.5t51.5 -62t101.5 -19.5q27 0 63.5 1.5t67.5 4.5l30 3l2 -41q-104 -11 -177 -11q-112 0 -157.5 59zM403 272q0 104 -34 149.5t-108 45.5
q-77 0 -116 -47.5t-40 -147.5h298zM126 692l20 42l200 -96l-17 -35z" />
    <glyph glyph-name="eacute" unicode="&#xe9;" horiz-adv-x="503" 
d="M56 0zM101.5 50q-45.5 59 -45.5 187q0 139 49.5 205.5t155.5 66.5q98 0 145 -57.5t47 -179.5l-1 -42h-346q-1 -72 14 -114.5t51.5 -62t101.5 -19.5q27 0 63.5 1.5t67.5 4.5l30 3l2 -41q-104 -11 -177 -11q-112 0 -157.5 59zM403 272q0 104 -34 149.5t-108 45.5
q-77 0 -116 -47.5t-40 -147.5h298zM162 638l201 96l19 -42l-203 -89z" />
    <glyph glyph-name="ecircumflex" unicode="&#xea;" horiz-adv-x="503" 
d="M56 0zM101.5 50q-45.5 59 -45.5 187q0 139 49.5 205.5t155.5 66.5q98 0 145 -57.5t47 -179.5l-1 -42h-346q-1 -72 14 -114.5t51.5 -62t101.5 -19.5q27 0 63.5 1.5t67.5 4.5l30 3l2 -41q-104 -11 -177 -11q-112 0 -157.5 59zM403 272q0 104 -34 149.5t-108 45.5
q-77 0 -116 -47.5t-40 -147.5h298zM244 732h37l122 -135h-54l-85 96l-88 -96h-54z" />
    <glyph glyph-name="edieresis" unicode="&#xeb;" horiz-adv-x="503" 
d="M56 0zM101.5 50q-45.5 59 -45.5 187q0 139 49.5 205.5t155.5 66.5q98 0 145 -57.5t47 -179.5l-1 -42h-346q-1 -72 14 -114.5t51.5 -62t101.5 -19.5q27 0 63.5 1.5t67.5 4.5l30 3l2 -41q-104 -11 -177 -11q-112 0 -157.5 59zM403 272q0 104 -34 149.5t-108 45.5
q-77 0 -116 -47.5t-40 -147.5h298zM136 704h48v-72h-48v72zM329 704h49v-72h-49v72z" />
    <glyph glyph-name="igrave" unicode="&#xec;" horiz-adv-x="201" 
d="M0 0zM76 500h48v-500h-48v500zM-60 692l20 42l200 -96l-17 -35z" />
    <glyph glyph-name="iacute" unicode="&#xed;" horiz-adv-x="201" 
d="M41 0zM76 500h48v-500h-48v500zM41 638l201 96l19 -42l-203 -89z" />
    <glyph glyph-name="icircumflex" unicode="&#xee;" horiz-adv-x="201" 
d="M0 0zM76 500h48v-500h-48v500zM81 732h37l122 -135h-54l-85 96l-88 -96h-54z" />
    <glyph glyph-name="idieresis" unicode="&#xef;" horiz-adv-x="201" 
d="M0 0zM76 500h48v-500h-48v500zM-23 704h48v-72h-48v72zM170 704h49v-72h-49v72z" />
    <glyph glyph-name="eth" unicode="&#xf0;" horiz-adv-x="540" 
d="M102 49q-58 58 -58 158q0 103 55 161.5t151 58.5q64 0 152 -31l28 -11q-6 147 -157 237l-119 -79l-24 34l103 70q-65 31 -131 48l14 40q89 -23 157 -61l103 70l26 -34l-87 -59q167 -101 167 -299q0 -131 -22.5 -210t-70.5 -115t-127 -36q-102 0 -160 58zM363 64.5
q35 28.5 51.5 94.5t17.5 181q-112 42 -174 42q-79 0 -121 -46t-42 -129q0 -80 44 -125.5t131 -45.5q58 0 93 28.5z" />
    <glyph glyph-name="ntilde" unicode="&#xf1;" horiz-adv-x="530" 
d="M76 0zM76 500h49v-38q48 26 89 36.5t85 10.5q64 0 98.5 -22.5t48 -75t13.5 -150.5v-261h-48v260q0 81 -9.5 124t-33.5 62t-71 19q-41 0 -84 -11t-65 -23l-22 -11v-420h-50v500zM277 650q-54 25 -68 25q-23 0 -60 -33l-13 -10l-13 36q25 27 45 37.5t40 10.5q21 0 75 -25
q56 -25 66 -25q18 0 55 31l12 9l12 -36q-26 -28 -42.5 -37t-35.5 -9t-73 26z" />
    <glyph glyph-name="ograve" unicode="&#xf2;" horiz-adv-x="526" 
d="M56 0zM136.5 15.5q-44.5 24.5 -62.5 79t-18 150.5q0 101 19 157.5t63.5 81.5t124.5 25q81 0 125.5 -25.5t63 -82t18.5 -156.5q0 -96 -17.5 -150.5t-62 -79t-127.5 -24.5q-82 0 -126.5 24.5zM362.5 55q32.5 20 44.5 63.5t12 126.5q0 88 -13 134.5t-45.5 66t-95.5 19.5
q-64 0 -97.5 -19.5t-46.5 -66t-13 -134.5q0 -82 12 -126t45.5 -64t99.5 -20q65 0 97.5 20zM149 692l20 42l200 -96l-17 -35z" />
    <glyph glyph-name="oacute" unicode="&#xf3;" horiz-adv-x="526" 
d="M56 0zM136.5 15.5q-44.5 24.5 -62.5 79t-18 150.5q0 101 19 157.5t63.5 81.5t124.5 25q81 0 125.5 -25.5t63 -82t18.5 -156.5q0 -96 -17.5 -150.5t-62 -79t-127.5 -24.5q-82 0 -126.5 24.5zM362.5 55q32.5 20 44.5 63.5t12 126.5q0 88 -13 134.5t-45.5 66t-95.5 19.5
q-64 0 -97.5 -19.5t-46.5 -66t-13 -134.5q0 -82 12 -126t45.5 -64t99.5 -20q65 0 97.5 20zM170 638l201 96l19 -42l-203 -89z" />
    <glyph glyph-name="ocircumflex" unicode="&#xf4;" horiz-adv-x="526" 
d="M56 0zM136.5 15.5q-44.5 24.5 -62.5 79t-18 150.5q0 101 19 157.5t63.5 81.5t124.5 25q81 0 125.5 -25.5t63 -82t18.5 -156.5q0 -96 -17.5 -150.5t-62 -79t-127.5 -24.5q-82 0 -126.5 24.5zM362.5 55q32.5 20 44.5 63.5t12 126.5q0 88 -13 134.5t-45.5 66t-95.5 19.5
q-64 0 -97.5 -19.5t-46.5 -66t-13 -134.5q0 -82 12 -126t45.5 -64t99.5 -20q65 0 97.5 20zM244 732h37l122 -135h-54l-85 96l-88 -96h-54z" />
    <glyph glyph-name="otilde" unicode="&#xf5;" horiz-adv-x="526" 
d="M56 0zM136.5 15.5q-44.5 24.5 -62.5 79t-18 150.5q0 101 19 157.5t63.5 81.5t124.5 25q81 0 125.5 -25.5t63 -82t18.5 -156.5q0 -96 -17.5 -150.5t-62 -79t-127.5 -24.5q-82 0 -126.5 24.5zM362.5 55q32.5 20 44.5 63.5t12 126.5q0 88 -13 134.5t-45.5 66t-95.5 19.5
q-64 0 -97.5 -19.5t-46.5 -66t-13 -134.5q0 -82 12 -126t45.5 -64t99.5 -20q65 0 97.5 20zM266 650q-54 25 -68 25q-23 0 -60 -33l-13 -10l-13 36q25 27 45 37.5t40 10.5q21 0 75 -25q56 -25 66 -25q18 0 55 31l12 9l12 -36q-26 -28 -42.5 -37t-35.5 -9t-73 26z" />
    <glyph glyph-name="odieresis" unicode="&#xf6;" horiz-adv-x="526" 
d="M56 0zM136.5 15.5q-44.5 24.5 -62.5 79t-18 150.5q0 101 19 157.5t63.5 81.5t124.5 25q81 0 125.5 -25.5t63 -82t18.5 -156.5q0 -96 -17.5 -150.5t-62 -79t-127.5 -24.5q-82 0 -126.5 24.5zM362.5 55q32.5 20 44.5 63.5t12 126.5q0 88 -13 134.5t-45.5 66t-95.5 19.5
q-64 0 -97.5 -19.5t-46.5 -66t-13 -134.5q0 -82 12 -126t45.5 -64t99.5 -20q65 0 97.5 20zM139 704h48v-72h-48v72zM332 704h49v-72h-49v72z" />
    <glyph glyph-name="divide" unicode="&#xf7;" 
d="M255 657h50v-87h-50v87zM150 373h258v-53h-258v53zM255 123h50v-87h-50v87z" />
    <glyph glyph-name="oslash" unicode="&#xf8;" horiz-adv-x="526" 
d="M101 -101l44 112q-50 25 -69.5 82t-19.5 165q0 92 20.5 146.5t65.5 79.5t121 25q44 0 82 -9l44 106l37 -15l-44 -106q88 -46 88 -227q0 -102 -17.5 -158.5t-61.5 -82.5t-128 -26q-45 0 -81 9l-44 -114zM329 457l-66 8q-87 0 -121 -42.5t-34 -142.5t9.5 -154t45.5 -79z
M362.5 54.5q32.5 19.5 44.5 68t12 145.5q0 139 -54 178l-166 -405q30 -6 64 -6q67 0 99.5 19.5z" />
    <glyph glyph-name="ugrave" unicode="&#xf9;" horiz-adv-x="521" 
d="M71 0zM132 13q-34 22 -47.5 74.5t-13.5 151.5v261h50v-258q0 -84 9 -127.5t33 -61.5t72 -18q84 0 161 45v420h49v-500h-50v38q-40 -24 -77.5 -35.5t-87.5 -11.5q-64 0 -98 22zM121 692l20 42l200 -96l-17 -35z" />
    <glyph glyph-name="uacute" unicode="&#xfa;" horiz-adv-x="521" 
d="M71 0zM132 13q-34 22 -47.5 74.5t-13.5 151.5v261h50v-258q0 -84 9 -127.5t33 -61.5t72 -18q84 0 161 45v420h49v-500h-50v38q-40 -24 -77.5 -35.5t-87.5 -11.5q-64 0 -98 22zM166 638l201 96l19 -42l-203 -89z" />
    <glyph glyph-name="ucircumflex" unicode="&#xfb;" horiz-adv-x="521" 
d="M71 0zM132 13q-34 22 -47.5 74.5t-13.5 151.5v261h50v-258q0 -84 9 -127.5t33 -61.5t72 -18q84 0 161 45v420h49v-500h-50v38q-40 -24 -77.5 -35.5t-87.5 -11.5q-64 0 -98 22zM237 732h37l122 -135h-54l-85 96l-88 -96h-54z" />
    <glyph glyph-name="udieresis" unicode="&#xfc;" horiz-adv-x="521" 
d="M71 0zM132 13q-34 22 -47.5 74.5t-13.5 151.5v261h50v-258q0 -84 9 -127.5t33 -61.5t72 -18q84 0 161 45v420h49v-500h-50v38q-40 -24 -77.5 -35.5t-87.5 -11.5q-64 0 -98 22zM143 704h48v-72h-48v72zM336 704h49v-72h-49v72z" />
    <glyph glyph-name="yacute" unicode="&#xfd;" horiz-adv-x="476" 
d="M29 0zM244 0h-65l-150 500h50l140 -456h37l141 456h51l-222 -727h-51zM168 638l201 96l19 -42l-203 -89z" />
    <glyph glyph-name="thorn" unicode="&#xfe;" horiz-adv-x="520" 
d="M76 726h50v-255q81 38 162 38q67 0 105 -24.5t54 -79.5t16 -152t-20.5 -153.5t-70 -82.5t-137.5 -26l-109 6v-224h-50v953zM343.5 56q38.5 22 53.5 68t15 127q0 83 -11 128.5t-38 65.5t-77 20q-67 0 -139 -27l-21 -9v-389q72 -6 107 -6q72 0 110.5 22z" />
    <glyph glyph-name="ydieresis" unicode="&#xff;" horiz-adv-x="476" 
d="M29 0zM244 0h-65l-150 500h50l140 -456h37l141 456h51l-222 -727h-51zM115 704h48v-72h-48v72zM308 704h49v-72h-49v72z" />
    <glyph glyph-name="Amacron" unicode="&#x100;" horiz-adv-x="593" 
d="M27 0zM457 202h-321l-60 -202h-49l206 697h127l206 -697h-49zM323 652h-52l-122 -403h295zM148 866h296v-41h-296v41z" />
    <glyph glyph-name="amacron" unicode="&#x101;" horiz-adv-x="497" 
d="M45 0zM79.5 29q-34.5 38 -34.5 107t34 104.5t109 44.5l179 18v48q0 58 -24.5 85.5t-67.5 27.5q-44 0 -82 -3t-119 -12l-3 41q108 19 192 19q79 0 116 -38t37 -120v-277q1 -16 19 -27t50 -15l-2 -41q-36 0 -64.5 11t-44.5 31q-94 -42 -194 -42q-66 0 -100.5 38zM340 62
l27 9v191l-173 -17q-52 -4 -74.5 -29t-22.5 -74q0 -108 87 -108q78 0 156 28zM114 677h270v-41h-270v41z" />
    <glyph glyph-name="Abreve" unicode="&#x102;" horiz-adv-x="593" 
d="M27 0zM457 202h-321l-60 -202h-49l206 697h127l206 -697h-49zM323 652h-52l-122 -403h295zM192.5 833q-40.5 34 -41.5 88h46q0 -35 29 -58.5t70 -23.5t69 23t28 59h48q-1 -54 -42.5 -88t-103.5 -34t-102.5 34z" />
    <glyph glyph-name="abreve" unicode="&#x103;" horiz-adv-x="499" 
d="M147.5 631q-40.5 37 -41.5 96h50q2 -40 27.5 -64.5t69.5 -24.5t69.5 24.5t25.5 64.5h50q-1 -59 -41 -96t-104 -37q-65 0 -105.5 37zM79 29.5q-34 38.5 -34 107.5t35 104.5t109 43.5l178 18v48q0 57 -25 84t-78 27q-71 0 -190 -15l-2 43l30 5q92 15 164 15
q77 0 113.5 -39.5t36.5 -120.5v-272q2 -15 20 -27t48 -16l-1 -44q-34 0 -64 11t-45 29l-26 -11q-25 -9 -77.5 -19t-95.5 -10q-62 0 -96 38.5zM367 71v189l-173 -16q-97 -9 -97 -104q0 -50 22 -78t62 -28q90 0 186 37z" />
    <glyph glyph-name="Aogonek" unicode="&#x104;" horiz-adv-x="593" 
d="M590 -194q-42 -8 -72 -8q-33 0 -57 22.5t-24 52.5q0 27 19 58.5t43 55.5l17 16l-59 199h-321l-60 -202h-49l206 697h127l206 -697h-3q-76 -81 -76 -112q0 -19 13 -32.5t32 -13.5l53 6zM323 652h-52l-122 -403h295z" />
    <glyph glyph-name="aogonek" unicode="&#x105;" horiz-adv-x="497" 
d="M480 -152l5 -42q-42 -8 -72 -8q-33 0 -57 22.5t-24 52.5q0 27 19 58.5t43 55.5l18 17q-24 11 -38 29q-94 -42 -194 -42q-66 0 -100.5 38t-34.5 107t34 104.5t109 44.5l179 18v48q0 58 -24.5 85.5t-67.5 27.5q-44 0 -82 -3t-119 -12l-3 41q108 19 192 19q79 0 116 -38
t37 -120v-277q1 -16 19 -27t50 -15l-2 -41q-11 0 -31 2q-70 -76 -70 -105q0 -19 13 -32.5t32 -13.5zM367 262l-173 -17q-52 -4 -74.5 -29t-22.5 -74q0 -108 87 -108q78 0 156 28l27 9v191z" />
    <glyph glyph-name="Cacute" unicode="&#x106;" horiz-adv-x="544" 
d="M64 0zM162.5 31.5q-56.5 40.5 -77.5 117t-21 201.5q0 120 19.5 195.5t76 118t162.5 42.5q76 0 180 -19l-3 -46q-98 19 -179 19q-85 0 -128 -30.5t-59 -99.5t-16 -199q0 -105 15.5 -166.5t62.5 -94.5t139 -33q72 0 165 20l3 -46q-97 -20 -178 -20q-105 0 -161.5 40.5z
M196 828l200 97l20 -43l-202 -90z" />
    <glyph glyph-name="cacute" unicode="&#x107;" horiz-adv-x="432" 
d="M57 0zM136 17q-43 26 -61 82t-18 151q0 72 11 126.5t52 94.5t124 40q31 0 61 -2.5t84 -11.5l-3 -41q-79 9 -122 9q-61 0 -94.5 -19.5t-47.5 -66t-14 -132.5q0 -81 13.5 -126t48 -65.5t99.5 -20.5l119 9l2 -42q-91 -11 -134 -11q-77 0 -120 26zM138 638l201 96l19 -42
l-203 -89z" />
    <glyph glyph-name="Ccircumflex" unicode="&#x108;" horiz-adv-x="544" 
d="M64 0zM162.5 31.5q-56.5 40.5 -77.5 117t-21 201.5q0 120 19.5 195.5t76 118t162.5 42.5q76 0 180 -19l-3 -46q-98 19 -179 19q-85 0 -128 -30.5t-59 -99.5t-16 -199q0 -105 15.5 -166.5t62.5 -94.5t139 -33q72 0 165 20l3 -46q-97 -20 -178 -20q-105 0 -161.5 40.5z
M294 931h42l134 -129h-58l-97 91l-96 -91h-59z" />
    <glyph glyph-name="ccircumflex" unicode="&#x109;" horiz-adv-x="432" 
d="M57 0zM136 17q-43 26 -61 82t-18 151q0 72 11 126.5t52 94.5t124 40q31 0 61 -2.5t84 -11.5l-3 -41q-79 9 -122 9q-61 0 -94.5 -19.5t-47.5 -66t-14 -132.5q0 -81 13.5 -126t48 -65.5t99.5 -20.5l119 9l2 -42q-91 -11 -134 -11q-77 0 -120 26zM217 732h37l122 -135h-54
l-85 96l-88 -96h-54z" />
    <glyph glyph-name="Cdotaccent" unicode="&#x10a;" horiz-adv-x="544" 
d="M64 0zM162.5 31.5q-56.5 40.5 -77.5 117t-21 201.5q0 120 19.5 195.5t76 118t162.5 42.5q76 0 180 -19l-3 -46q-98 19 -179 19q-85 0 -128 -30.5t-59 -99.5t-16 -199q0 -105 15.5 -166.5t62.5 -94.5t139 -33q72 0 165 20l3 -46q-97 -20 -178 -20q-105 0 -161.5 40.5z
M271 885h48v-66h-48v66z" />
    <glyph glyph-name="cdotaccent" unicode="&#x10b;" horiz-adv-x="432" 
d="M57 0zM136 17q-43 26 -61 82t-18 151q0 72 11 126.5t52 94.5t124 40q31 0 61 -2.5t84 -11.5l-3 -41q-79 9 -122 9q-61 0 -94.5 -19.5t-47.5 -66t-14 -132.5q0 -81 13.5 -126t48 -65.5t99.5 -20.5l119 9l2 -42q-91 -11 -134 -11q-77 0 -120 26zM225 698h48v-66h-48v66z
" />
    <glyph glyph-name="Ccaron" unicode="&#x10c;" horiz-adv-x="544" 
d="M64 0zM162.5 31.5q-56.5 40.5 -77.5 117t-21 201.5q0 120 19.5 195.5t76 118t162.5 42.5q76 0 180 -19l-3 -46q-98 19 -179 19q-85 0 -128 -30.5t-59 -99.5t-16 -199q0 -105 15.5 -166.5t62.5 -94.5t139 -33q72 0 165 20l3 -46q-97 -20 -178 -20q-105 0 -161.5 40.5z
M146 931h59l96 -90l96 90h59l-134 -129h-42z" />
    <glyph glyph-name="ccaron" unicode="&#x10d;" horiz-adv-x="432" 
d="M57 0zM136 17q-43 26 -61 82t-18 151q0 72 11 126.5t52 94.5t124 40q31 0 61 -2.5t84 -11.5l-3 -41q-79 9 -122 9q-61 0 -94.5 -19.5t-47.5 -66t-14 -132.5q0 -81 13.5 -126t48 -65.5t99.5 -20.5l119 9l2 -42q-91 -11 -134 -11q-77 0 -120 26zM154 732l87 -95l85 95h54
l-122 -135h-37l-122 135h55z" />
    <glyph glyph-name="Dcaron" unicode="&#x10e;" horiz-adv-x="648" 
d="M90 0zM538 600q48 -97 48 -232q0 -189 -63.5 -278.5t-177.5 -89.5h-255v697h255q145 0 193 -97zM444 80q43 35 67 104.5t24 170.5q0 151 -50.5 224t-139.5 73h-205v-607h205q56 0 99 35zM135 931h59l96 -90l96 90h59l-134 -129h-42z" />
    <glyph glyph-name="dcaron" unicode="&#x10f;" horiz-adv-x="520" 
d="M55 0zM95 51.5q-40 60.5 -40 188.5q0 97 21.5 155.5t69 86t127.5 27.5q63 0 122 -12v229h48v-726h-49v40q-78 -49 -167 -49q-92 0 -132 60.5zM310 46.5q40 11.5 62 23.5l23 11v372q-66 13 -124 13q-63 0 -98.5 -23t-50.5 -70t-15 -126q0 -106 28.5 -159t98.5 -53
q36 0 76 11.5zM544 686h50l-48 -196h-41z" />
    <glyph glyph-name="Dcroat" unicode="&#x110;" horiz-adv-x="649" 
d="M92 326h-74v47h74v326h256q123 0 182 -89.5t59 -249.5q0 -180 -65.5 -270t-175.5 -90h-256v326zM348 48q91 0 139.5 83.5t48.5 229.5q0 147 -51 218.5t-137 71.5h-206v-278h170v-47h-170v-278h206z" />
    <glyph glyph-name="dcroat" unicode="&#x111;" horiz-adv-x="523" 
d="M164 -1q-27 9 -54 33q-57 51 -57 200q0 100 21 160.5t67 89t122 28.5q47 0 126 -13v125h-186v53h186v47h60v-47h36v-53h-36v-622h-60v37q-80 -47 -160 -47q-38 0 -65 9zM304.5 54.5q37.5 10.5 63.5 21.5l21 11v358q-79 12 -124 12q-83 0 -116.5 -50.5t-33.5 -162.5
q0 -128 39 -167q19 -19 37.5 -26t48.5 -7q27 0 64.5 10.5z" />
    <glyph glyph-name="Emacron" unicode="&#x112;" horiz-adv-x="553" 
d="M90 0zM140 652v-274h303v-45h-303v-288h363v-45h-413v697h413v-45h-363zM147 866h296v-41h-296v41z" />
    <glyph glyph-name="emacron" unicode="&#x113;" horiz-adv-x="503" 
d="M56 0zM101.5 50q-45.5 59 -45.5 187q0 139 49.5 205.5t155.5 66.5q98 0 145 -57.5t47 -179.5l-1 -42h-346q-1 -72 14 -114.5t51.5 -62t101.5 -19.5q27 0 63.5 1.5t67.5 4.5l30 3l2 -41q-104 -11 -177 -11q-112 0 -157.5 59zM403 272q0 104 -34 149.5t-108 45.5
q-77 0 -116 -47.5t-40 -147.5h298zM127 677h270v-41h-270v41z" />
    <glyph glyph-name="Ebreve" unicode="&#x114;" horiz-adv-x="553" 
d="M90 0zM140 652v-274h303v-45h-303v-288h363v-45h-413v697h413v-45h-363zM202.5 833q-40.5 34 -41.5 88h46q0 -35 29 -58.5t70 -23.5t69 23t28 59h48q-1 -54 -42.5 -88t-103.5 -34t-102.5 34z" />
    <glyph glyph-name="ebreve" unicode="&#x115;" horiz-adv-x="503" 
d="M56 0zM154.5 629q-39.5 37 -40.5 95h44q2 -42 28 -67t71 -25q43 0 70 25.5t26 66.5h45q-1 -58 -40 -95t-101 -37q-63 0 -102.5 37zM101.5 50q-45.5 59 -45.5 187q0 139 49.5 205.5t155.5 66.5q98 0 145 -57.5t47 -179.5l-1 -42h-346q-1 -72 14 -114.5t51.5 -62
t101.5 -19.5q27 0 63.5 1.5t67.5 4.5l30 3l2 -41q-104 -11 -177 -11q-112 0 -157.5 59zM403 272q0 104 -34 149.5t-108 45.5q-77 0 -116 -47.5t-40 -147.5h298z" />
    <glyph glyph-name="Edotaccent" unicode="&#x116;" horiz-adv-x="553" 
d="M90 0zM140 652v-274h303v-45h-303v-288h363v-45h-413v697h413v-45h-363zM272 882h48v-66h-48v66z" />
    <glyph glyph-name="edotaccent" unicode="&#x117;" horiz-adv-x="503" 
d="M56 0zM101.5 50q-45.5 59 -45.5 187q0 139 49.5 205.5t155.5 66.5q98 0 145 -57.5t47 -179.5l-1 -42h-346q-1 -72 14 -114.5t51.5 -62t101.5 -19.5q27 0 63.5 1.5t67.5 4.5l30 3l2 -41q-104 -11 -177 -11q-112 0 -157.5 59zM403 272q0 104 -34 149.5t-108 45.5
q-77 0 -116 -47.5t-40 -147.5h298zM229 698h48v-66h-48v66z" />
    <glyph glyph-name="Eogonek" unicode="&#x118;" horiz-adv-x="553" 
d="M140 652v-274h303v-45h-303v-288h363v-45h-30q-76 -81 -76 -112q0 -19 13 -32.5t32 -13.5l53 6l5 -42q-42 -8 -72 -8q-33 0 -57 22.5t-24 52.5q0 27 19 58.5t43 55.5l14 13h-333v697h413v-45h-363z" />
    <glyph glyph-name="eogonek" unicode="&#x119;" horiz-adv-x="503" 
d="M106 230q-1 -72 14 -114.5t51.5 -62t101.5 -19.5q27 0 63.5 1.5t67.5 4.5l30 3l2 -41l-20 -2q-76 -81 -76 -112q0 -19 13 -32.5t32 -13.5l53 6l5 -42q-42 -8 -72 -8q-33 0 -57 22.5t-24 52.5q0 27 19 58.5t43 55.5l9 8q-59 -4 -102 -4q-112 0 -157.5 59t-45.5 187
q0 139 49.5 205.5t155.5 66.5q98 0 145 -57.5t47 -179.5l-1 -42h-346zM403 272q0 104 -34 149.5t-108 45.5q-77 0 -116 -47.5t-40 -147.5h298z" />
    <glyph glyph-name="Ecaron" unicode="&#x11a;" horiz-adv-x="553" 
d="M90 0zM140 652v-274h303v-45h-303v-288h363v-45h-413v697h413v-45h-363zM140 931h59l96 -90l96 90h59l-134 -129h-42z" />
    <glyph glyph-name="ecaron" unicode="&#x11b;" horiz-adv-x="503" 
d="M56 0zM101.5 50q-45.5 59 -45.5 187q0 139 49.5 205.5t155.5 66.5q98 0 145 -57.5t47 -179.5l-1 -42h-346q-1 -72 14 -114.5t51.5 -62t101.5 -19.5q27 0 63.5 1.5t67.5 4.5l30 3l2 -41q-104 -11 -177 -11q-112 0 -157.5 59zM403 272q0 104 -34 149.5t-108 45.5
q-77 0 -116 -47.5t-40 -147.5h298zM167 732l87 -95l85 95h54l-122 -135h-37l-122 135h55z" />
    <glyph glyph-name="Gcircumflex" unicode="&#x11c;" horiz-adv-x="618" 
d="M62 0zM171 29.5q-58 38.5 -83.5 116.5t-25.5 201q0 124 25 202.5t82.5 117.5t155.5 39q87 0 190 -19l33 -6l-3 -45q-126 24 -223 24q-74 0 -119 -28.5t-66.5 -94.5t-21.5 -180q0 -117 19.5 -186.5t65.5 -102t129 -32.5q41 0 79 4.5t90 14.5v248h-138v47h188v-335
q-118 -24 -222 -24q-97 0 -155 38.5zM299 931h42l134 -129h-58l-97 91l-96 -91h-59z" />
    <glyph glyph-name="gcircumflex" unicode="&#x11d;" horiz-adv-x="505" 
d="M56 0zM131.5 -221.5q-42.5 15.5 -59 47.5t-16.5 87q0 35 7.5 55t22.5 34.5t52 42.5q-12 8 -18 25.5t-6 37.5q0 13 5.5 28t25.5 54q-83 29 -83 151q0 86 43 127.5t137 41.5q47 0 102 -13l142 4v-46h-103q37 -31 37 -115q0 -89 -43.5 -126.5t-140.5 -37.5q-32 0 -53 4
q-2 -4 -3.5 -9.5t-4.5 -10.5q-6 -15 -10 -27.5t-4 -22.5q0 -29 21.5 -38t66.5 -9h47q61 1 99 -9t59 -40.5t21 -88.5q0 -85 -50.5 -123.5t-172.5 -38.5q-78 0 -120.5 15.5zM341 245q29 28 29 98q0 69 -29 97t-98 28q-72 0 -102 -28.5t-30 -97.5t29.5 -97t100.5 -28t100 28z
M357 -183.5q36 11.5 51.5 38t15.5 71.5q0 38 -10.5 57.5t-39 28t-85.5 7.5l-116 4q-42 -29 -55 -48.5t-13 -57.5q0 -43 14 -67t46.5 -34.5t92.5 -10.5q63 0 99 11.5zM239 732h37l122 -135h-54l-85 96l-88 -96h-54z" />
    <glyph glyph-name="Gbreve" unicode="&#x11e;" horiz-adv-x="618" 
d="M62 0zM171 29.5q-58 38.5 -83.5 116.5t-25.5 201q0 124 25 202.5t82.5 117.5t155.5 39q87 0 190 -19l33 -6l-3 -45q-126 24 -223 24q-74 0 -119 -28.5t-66.5 -94.5t-21.5 -180q0 -117 19.5 -186.5t65.5 -102t129 -32.5q41 0 79 4.5t90 14.5v248h-138v47h188v-335
q-118 -24 -222 -24q-97 0 -155 38.5zM227.5 833q-40.5 34 -41.5 88h46q0 -35 29 -58.5t70 -23.5t69 23t28 59h48q-1 -54 -42.5 -88t-103.5 -34t-102.5 34z" />
    <glyph glyph-name="gbreve" unicode="&#x11f;" horiz-adv-x="505" 
d="M56 0zM131.5 -221.5q-42.5 15.5 -59 47.5t-16.5 87q0 35 7.5 55t22.5 34.5t52 42.5q-12 8 -18 25.5t-6 37.5q0 13 5.5 28t25.5 54q-83 29 -83 151q0 86 43 127.5t137 41.5q47 0 102 -13l142 4v-46h-103q37 -31 37 -115q0 -89 -43.5 -126.5t-140.5 -37.5q-32 0 -53 4
q-2 -4 -3.5 -9.5t-4.5 -10.5q-6 -15 -10 -27.5t-4 -22.5q0 -29 21.5 -38t66.5 -9h47q61 1 99 -9t59 -40.5t21 -88.5q0 -85 -50.5 -123.5t-172.5 -38.5q-78 0 -120.5 15.5zM341 245q29 28 29 98q0 69 -29 97t-98 28q-72 0 -102 -28.5t-30 -97.5t29.5 -97t100.5 -28t100 28z
M357 -183.5q36 11.5 51.5 38t15.5 71.5q0 38 -10.5 57.5t-39 28t-85.5 7.5l-116 4q-42 -29 -55 -48.5t-13 -57.5q0 -43 14 -67t46.5 -34.5t92.5 -10.5q63 0 99 11.5zM155.5 629q-39.5 37 -40.5 95h44q2 -42 28 -67t71 -25q43 0 70 25.5t26 66.5h45q-1 -58 -40 -95t-101 -37
q-63 0 -102.5 37z" />
    <glyph glyph-name="Gdotaccent" unicode="&#x120;" horiz-adv-x="618" 
d="M62 0zM171 29.5q-58 38.5 -83.5 116.5t-25.5 201q0 124 25 202.5t82.5 117.5t155.5 39q87 0 190 -19l33 -6l-3 -45q-126 24 -223 24q-74 0 -119 -28.5t-66.5 -94.5t-21.5 -180q0 -117 19.5 -186.5t65.5 -102t129 -32.5q41 0 79 4.5t90 14.5v248h-138v47h188v-335
q-118 -24 -222 -24q-97 0 -155 38.5zM289 882h48v-66h-48v66z" />
    <glyph glyph-name="gdotaccent" unicode="&#x121;" horiz-adv-x="505" 
d="M56 0zM131.5 -221.5q-42.5 15.5 -59 47.5t-16.5 87q0 35 7.5 55t22.5 34.5t52 42.5q-12 8 -18 25.5t-6 37.5q0 13 5.5 28t25.5 54q-83 29 -83 151q0 86 43 127.5t137 41.5q47 0 102 -13l142 4v-46h-103q37 -31 37 -115q0 -89 -43.5 -126.5t-140.5 -37.5q-32 0 -53 4
q-2 -4 -3.5 -9.5t-4.5 -10.5q-6 -15 -10 -27.5t-4 -22.5q0 -29 21.5 -38t66.5 -9h47q61 1 99 -9t59 -40.5t21 -88.5q0 -85 -50.5 -123.5t-172.5 -38.5q-78 0 -120.5 15.5zM341 245q29 28 29 98q0 69 -29 97t-98 28q-72 0 -102 -28.5t-30 -97.5t29.5 -97t100.5 -28t100 28z
M357 -183.5q36 11.5 51.5 38t15.5 71.5q0 38 -10.5 57.5t-39 28t-85.5 7.5l-116 4q-42 -29 -55 -48.5t-13 -57.5q0 -43 14 -67t46.5 -34.5t92.5 -10.5q63 0 99 11.5zM233 698h48v-66h-48v66z" />
    <glyph glyph-name="Gcommaaccent" unicode="&#x122;" horiz-adv-x="618" 
d="M62 0zM171 29.5q-58 38.5 -83.5 116.5t-25.5 201q0 124 25 202.5t82.5 117.5t155.5 39q87 0 190 -19l33 -6l-3 -45q-126 24 -223 24q-74 0 -119 -28.5t-66.5 -94.5t-21.5 -180q0 -117 19.5 -186.5t65.5 -102t129 -32.5q41 0 79 4.5t90 14.5v248h-138v47h188v-335
q-118 -24 -222 -24q-97 0 -155 38.5zM316 -78h50l-48 -196h-41z" />
    <glyph glyph-name="gcommaaccent" unicode="&#x123;" horiz-adv-x="505" 
d="M251 591h-50l48 196h41zM131.5 -221.5q-42.5 15.5 -59 47.5t-16.5 87q0 35 7.5 55t22.5 34.5t52 42.5q-12 8 -18 25.5t-6 37.5q0 13 5.5 28t25.5 54q-83 29 -83 151q0 86 43 127.5t137 41.5q47 0 102 -13l142 4v-46h-103q37 -31 37 -115q0 -89 -43.5 -126.5t-140.5 -37.5
q-32 0 -53 4q-2 -4 -3.5 -9.5t-4.5 -10.5q-6 -15 -10 -27.5t-4 -22.5q0 -29 21.5 -38t66.5 -9h47q61 1 99 -9t59 -40.5t21 -88.5q0 -85 -50.5 -123.5t-172.5 -38.5q-78 0 -120.5 15.5zM341 245q29 28 29 98q0 69 -29 97t-98 28q-72 0 -102 -28.5t-30 -97.5t29.5 -97
t100.5 -28t100 28zM357 -183.5q36 11.5 51.5 38t15.5 71.5q0 38 -10.5 57.5t-39 28t-85.5 7.5l-116 4q-42 -29 -55 -48.5t-13 -57.5q0 -43 14 -67t46.5 -34.5t92.5 -10.5q63 0 99 11.5z" />
    <glyph glyph-name="Hcircumflex" unicode="&#x124;" horiz-adv-x="674" 
d="M90 0zM584 697v-697h-49v326h-395v-326h-50v697h50v-324h395v324h49zM317 931h42l134 -129h-58l-97 91l-96 -91h-59z" />
    <glyph glyph-name="hcircumflex" unicode="&#x125;" horiz-adv-x="530" 
d="M76 0zM76 726h50v-256q85 39 169 39q66 0 101 -22.5t49 -75t14 -150.5v-261h-50v259q0 86 -9.5 129t-35.5 60t-79 17q-66 0 -138 -28l-21 -8v-429h-50v726zM245 919h37l122 -135h-54l-85 96l-88 -96h-54z" />
    <glyph glyph-name="Hbar" unicode="&#x126;" horiz-adv-x="686" 
d="M94 518h-81v42h81v137h50v-137h395v137h49v-137h91v-42h-91v-518h-49v326h-395v-326h-50v518zM539 373v145h-395v-145h395z" />
    <glyph glyph-name="hbar" unicode="&#x127;" horiz-adv-x="530" 
d="M76 601h-67v44h67v81h50v-81h159v-44h-159v-131q84 39 167 39q68 0 103 -22t49 -74t14 -152v-261h-50v259q0 85 -9.5 128t-35 60.5t-76.5 17.5q-71 0 -141 -28l-21 -8v-429h-50v601z" />
    <glyph glyph-name="Itilde" unicode="&#x128;" horiz-adv-x="229" 
d="M0 0zM90 697h50v-697h-50v697zM108 851q-58 29 -74 29q-22 0 -59 -38l-12 -13l-12 39q20 23 43 39t43 16q21 0 81 -28q59 -29 70 -29q19 0 55 36l11 12l13 -39q-26 -32 -43.5 -42t-35.5 -10q-21 0 -80 28z" />
    <glyph glyph-name="itilde" unicode="&#x129;" horiz-adv-x="201" 
d="M0 0zM76 500h48v-500h-48v500zM104 650q-54 25 -68 25q-23 0 -60 -33l-13 -10l-13 36q25 27 45 37.5t40 10.5q21 0 75 -25q56 -25 66 -25q18 0 55 31l12 9l12 -36q-26 -28 -42.5 -37t-35.5 -9t-73 26z" />
    <glyph glyph-name="Imacron" unicode="&#x12a;" horiz-adv-x="229" 
d="M0 0zM90 697h50v-697h-50v697zM-32 866h296v-41h-296v41z" />
    <glyph glyph-name="imacron" unicode="&#x12b;" horiz-adv-x="201" 
d="M0 0zM76 500h48v-500h-48v500zM-34 677h270v-41h-270v41z" />
    <glyph glyph-name="Ibreve" unicode="&#x12c;" horiz-adv-x="229" 
d="M0 0zM90 697h50v-697h-50v697zM15.5 833q-40.5 34 -41.5 88h46q0 -35 29 -58.5t70 -23.5t69 23t28 59h48q-1 -54 -42.5 -88t-103.5 -34t-102.5 34z" />
    <glyph glyph-name="ibreve" unicode="&#x12d;" horiz-adv-x="201" 
d="M0 0zM76 500h48v-500h-48v500zM-0.5 629q-39.5 37 -40.5 95h44q2 -42 28 -67t71 -25q43 0 70 25.5t26 66.5h45q-1 -58 -40 -95t-101 -37q-63 0 -102.5 37z" />
    <glyph glyph-name="Iogonek" unicode="&#x12e;" horiz-adv-x="229" 
d="M165 -194q-42 -8 -72 -8q-33 0 -57 22.5t-24 52.5q0 27 19 58.5t43 55.5l16 15v695h50v-697h-2q-76 -81 -76 -112q0 -19 13 -32.5t32 -13.5l53 6z" />
    <glyph glyph-name="iogonek" unicode="&#x12f;" horiz-adv-x="201" 
d="M124 634h-48v66h48v-66zM150 -194q-42 -8 -72 -8q-33 0 -57 22.5t-24 52.5q0 27 19 58.5t43 55.5l17 16v497h48v-500h-1q-76 -81 -76 -112q0 -19 13 -32.5t32 -13.5l53 6z" />
    <glyph glyph-name="Idotaccent" unicode="&#x130;" horiz-adv-x="229" 
d="M90 0zM90 697h50v-697h-50v697zM90 882h48v-66h-48v66z" />
    <glyph glyph-name="dotlessi" unicode="&#x131;" horiz-adv-x="201" 
d="M76 500h48v-500h-48v500z" />
    <glyph glyph-name="Jcircumflex" unicode="&#x134;" horiz-adv-x="283" 
d="M15 0zM18 -26q62 0 87 7t33.5 32t8.5 87v597h49l1 -611q0 -78 -21.5 -112t-55 -40.5t-102.5 -6.5v47zM149 927h42l134 -129h-58l-97 91l-96 -91h-59z" />
    <glyph glyph-name="jcircumflex" unicode="&#x135;" horiz-adv-x="202" 
d="M0 0zM-56 -180q58 32 85.5 55.5t37.5 52.5t10 80v492h48v-493q0 -60 -13.5 -97.5t-47 -66.5t-99.5 -63zM79 732h37l122 -135h-54l-85 96l-88 -96h-54z" />
    <glyph glyph-name="Kcommaaccent" unicode="&#x136;" horiz-adv-x="559" 
d="M90 0zM264 321l-124 -2v-319h-50v697h50v-332l120 1l209 331h58l-222 -351l236 -346h-61zM272 -78h50l-48 -196h-41z" />
    <glyph glyph-name="kcommaaccent" unicode="&#x137;" horiz-adv-x="463" 
d="M76 0zM76 726h50v-435l89 1l163 208h56l-177 -227l184 -273h-56l-170 248h-89v-248h-50v726zM187 -78h50l-48 -196h-41z" />
    <glyph glyph-name="Lacute" unicode="&#x139;" horiz-adv-x="482" 
d="M90 0zM468 46v-46h-378v697h50v-651h328zM145 828l200 97l20 -43l-202 -90z" />
    <glyph glyph-name="lacute" unicode="&#x13a;" horiz-adv-x="214" 
d="M57 0zM82 726h50v-726h-50v726zM57 839l201 96l19 -42l-203 -89z" />
    <glyph glyph-name="Lcommaaccent" unicode="&#x13b;" horiz-adv-x="482" 
d="M90 0zM468 46v-46h-378v697h50v-651h328zM257 -78h50l-48 -196h-41z" />
    <glyph glyph-name="lcommaaccent" unicode="&#x13c;" horiz-adv-x="214" 
d="M39 0zM82 726h50v-726h-50v726zM78 -78h50l-48 -196h-41z" />
    <glyph glyph-name="Lcaron" unicode="&#x13d;" horiz-adv-x="492" 
d="M429 476h-48v223h48v-223zM468 46v-46h-378v697h50v-651h328z" />
    <glyph glyph-name="lcaron" unicode="&#x13e;" horiz-adv-x="168" 
d="M82 0zM82 726h50v-726h-50v726zM234 686h50l-48 -196h-41z" />
    <glyph glyph-name="Lslash" unicode="&#x141;" horiz-adv-x="484" 
d="M93 296l-63 -45l-25 36l88 62v348h51v-312l160 111l25 -34l-185 -131v-285h327v-46h-378v296z" />
    <glyph glyph-name="lslash" unicode="&#x142;" horiz-adv-x="279" 
d="M112 305l-74 -52l-25 36l99 69v368h49v-334l79 56l25 -36l-104 -73v-339h-49v305z" />
    <glyph glyph-name="Nacute" unicode="&#x143;" horiz-adv-x="669" 
d="M90 0zM579 697v-697h-104l-316 652h-19v-652h-50v697h105l313 -652h22v652h49zM228 828l200 97l20 -43l-202 -90z" />
    <glyph glyph-name="nacute" unicode="&#x144;" horiz-adv-x="530" 
d="M76 0zM76 500h49v-38q48 26 89 36.5t85 10.5q64 0 98.5 -22.5t48 -75t13.5 -150.5v-261h-48v260q0 81 -9.5 124t-33.5 62t-71 19q-41 0 -84 -11t-65 -23l-22 -11v-420h-50v500zM166 638l201 96l19 -42l-203 -89z" />
    <glyph glyph-name="Ncommaaccent" unicode="&#x145;" horiz-adv-x="669" 
d="M90 0zM579 697v-697h-104l-316 652h-19v-652h-50v697h105l313 -652h22v652h49zM335 -78h50l-48 -196h-41z" />
    <glyph glyph-name="ncommaaccent" unicode="&#x146;" horiz-adv-x="530" 
d="M76 0zM76 500h49v-38q48 26 89 36.5t85 10.5q64 0 98.5 -22.5t48 -75t13.5 -150.5v-261h-48v260q0 81 -9.5 124t-33.5 62t-71 19q-41 0 -84 -11t-65 -23l-22 -11v-420h-50v500zM225 -78h50l-48 -196h-41z" />
    <glyph glyph-name="Ncaron" unicode="&#x147;" horiz-adv-x="669" 
d="M90 0zM579 697v-697h-104l-316 652h-19v-652h-50v697h105l313 -652h22v652h49zM180 927h59l96 -90l96 90h59l-134 -129h-42z" />
    <glyph glyph-name="ncaron" unicode="&#x148;" horiz-adv-x="530" 
d="M76 0zM76 500h49v-38q48 26 89 36.5t85 10.5q64 0 98.5 -22.5t48 -75t13.5 -150.5v-261h-48v260q0 81 -9.5 124t-33.5 62t-71 19q-41 0 -84 -11t-65 -23l-22 -11v-420h-50v500zM180 732l87 -95l85 95h54l-122 -135h-37l-122 135h55z" />
    <glyph glyph-name="Eng" unicode="&#x14a;" horiz-adv-x="669" 
d="M401 -132q62 0 87 7t33.5 31.5t8.5 86.5v7h-55l-312 652h-23v-652h-50v697h105l309 -652h26v652h49l1 -717q0 -58 -10.5 -90.5t-35.5 -48t-73 -19.5l-60 -1v47z" />
    <glyph glyph-name="eng" unicode="&#x14b;" horiz-adv-x="532" 
d="M287 -190q53 31 79 54.5t35.5 52.5t9.5 77v264q0 82 -9.5 125t-35 62.5t-76.5 19.5q-33 0 -77 -11.5t-64 -23.5l-24 -10v-420h-48v500h48v-37q88 46 170 46q66 0 101 -23.5t49.5 -76.5t14.5 -149v-265q0 -60 -12.5 -96.5t-44 -65.5t-96.5 -65z" />
    <glyph glyph-name="Omacron" unicode="&#x14c;" horiz-adv-x="663" 
d="M63 0zM171 28q-59 37 -83.5 114t-24.5 204q0 126 25.5 204.5t84 117t159.5 38.5q100 0 159 -38.5t85 -117.5t26 -207q0 -130 -25 -206t-83 -111t-161 -35t-162 37zM464.5 66.5q46.5 30.5 65.5 96t19 180.5t-19.5 183.5t-67 101.5t-130.5 33q-84 0 -131.5 -32.5
t-67 -100.5t-19.5 -182q0 -117 20 -183.5t67 -96.5t132 -30t131.5 30.5zM185 866h296v-41h-296v41z" />
    <glyph glyph-name="omacron" unicode="&#x14d;" horiz-adv-x="526" 
d="M56 0zM136.5 15.5q-44.5 24.5 -62.5 79t-18 150.5q0 101 19 157.5t63.5 81.5t124.5 25q81 0 125.5 -25.5t63 -82t18.5 -156.5q0 -96 -17.5 -150.5t-62 -79t-127.5 -24.5q-82 0 -126.5 24.5zM362.5 55q32.5 20 44.5 63.5t12 126.5q0 88 -13 134.5t-45.5 66t-95.5 19.5
q-64 0 -97.5 -19.5t-46.5 -66t-13 -134.5q0 -82 12 -126t45.5 -64t99.5 -20q65 0 97.5 20zM129 694h270v-41h-270v41z" />
    <glyph glyph-name="Obreve" unicode="&#x14e;" horiz-adv-x="663" 
d="M63 0zM171 28q-59 37 -83.5 114t-24.5 204q0 126 25.5 204.5t84 117t159.5 38.5q100 0 159 -38.5t85 -117.5t26 -207q0 -130 -25 -206t-83 -111t-161 -35t-162 37zM464.5 66.5q46.5 30.5 65.5 96t19 180.5t-19.5 183.5t-67 101.5t-130.5 33q-84 0 -131.5 -32.5
t-67 -100.5t-19.5 -182q0 -117 20 -183.5t67 -96.5t132 -30t131.5 30.5zM229.5 833q-40.5 34 -41.5 88h46q0 -35 29 -58.5t70 -23.5t69 23t28 59h48q-1 -54 -42.5 -88t-103.5 -34t-102.5 34z" />
    <glyph glyph-name="obreve" unicode="&#x14f;" horiz-adv-x="526" 
d="M56 0zM136.5 15.5q-44.5 24.5 -62.5 79t-18 150.5q0 101 19 157.5t63.5 81.5t124.5 25q81 0 125.5 -25.5t63 -82t18.5 -156.5q0 -96 -17.5 -150.5t-62 -79t-127.5 -24.5q-82 0 -126.5 24.5zM362.5 55q32.5 20 44.5 63.5t12 126.5q0 88 -13 134.5t-45.5 66t-95.5 19.5
q-64 0 -97.5 -19.5t-46.5 -66t-13 -134.5q0 -82 12 -126t45.5 -64t99.5 -20q65 0 97.5 20zM164.5 629q-39.5 37 -40.5 95h44q2 -42 28 -67t71 -25q43 0 70 25.5t26 66.5h45q-1 -58 -40 -95t-101 -37q-63 0 -102.5 37z" />
    <glyph glyph-name="Ohungarumlaut" unicode="&#x150;" horiz-adv-x="663" 
d="M63 0zM171 28q-59 37 -83.5 114t-24.5 204q0 126 25.5 204.5t84 117t159.5 38.5q100 0 159 -38.5t85 -117.5t26 -207q0 -130 -25 -206t-83 -111t-161 -35t-162 37zM464.5 66.5q46.5 30.5 65.5 96t19 180.5t-19.5 183.5t-67 101.5t-130.5 33q-84 0 -131.5 -32.5
t-67 -100.5t-19.5 -182q0 -117 20 -183.5t67 -96.5t132 -30t131.5 30.5zM148 789l174 104l27 -32l-174 -102zM340 789l174 103l29 -32l-176 -102z" />
    <glyph glyph-name="ohungarumlaut" unicode="&#x151;" horiz-adv-x="526" 
d="M56 0zM136.5 15.5q-44.5 24.5 -62.5 79t-18 150.5q0 101 19 157.5t63.5 81.5t124.5 25q81 0 125.5 -25.5t63 -82t18.5 -156.5q0 -96 -17.5 -150.5t-62 -79t-127.5 -24.5q-82 0 -126.5 24.5zM362.5 55q32.5 20 44.5 63.5t12 126.5q0 88 -13 134.5t-45.5 66t-95.5 19.5
q-64 0 -97.5 -19.5t-46.5 -66t-13 -134.5q0 -82 12 -126t45.5 -64t99.5 -20q65 0 97.5 20zM298 622l157 117l30 -32l-158 -117zM110 622l157 116l30 -31l-157 -117z" />
    <glyph glyph-name="OE" unicode="&#x152;" horiz-adv-x="935" 
d="M169 28q-58 37 -82.5 114t-24.5 205t25 206t83 116.5t159 38.5q95 0 151 -9h405v-49h-355v-267h295v-49h-295v-285h355v-50h-403q-87 -8 -153 -8q-102 0 -160 37zM480 47v602q-114 10 -142 10q-85 0 -133 -27.5t-69 -92.5t-21 -182q0 -120 19 -188t65.5 -99t133.5 -31
q72 0 147 8z" />
    <glyph glyph-name="oe" unicode="&#x153;" horiz-adv-x="867" 
d="M138.5 16.5q-45.5 25.5 -64 81t-18.5 155.5q0 96 21 152t66 80.5t122 24.5q73 0 116.5 -27.5t65.5 -88.5q20 56 65.5 86t111.5 30q99 0 146.5 -57.5t47.5 -180.5l-2 -43h-345q-1 -98 32 -146t103 -48q66 0 161 7l30 2l2 -42q-102 -11 -185 -11q-126 0 -169 101
q-21 -54 -62 -77.5t-115 -23.5q-84 0 -129.5 25.5zM362 55q33 21 45 67t12 129q0 79 -16 126t-50.5 67.5t-92.5 20.5q-59 0 -91.5 -18.5t-46.5 -63.5t-14 -127q0 -87 12.5 -133.5t46 -67.5t98.5 -21q64 0 97 21zM767 272q0 104 -33.5 148.5t-109.5 44.5q-75 0 -114.5 -49
t-39.5 -144h297z" />
    <glyph glyph-name="Racute" unicode="&#x154;" horiz-adv-x="614" 
d="M90 0zM90 697h252q108 0 160.5 -49.5t52.5 -154.5q0 -172 -139 -203l149 -290h-56l-145 281h-224v-281h-50v697zM343 327q160 0 160 162q0 83 -39.5 122.5t-121.5 39.5h-202v-324h203zM195 828l200 97l20 -43l-202 -90z" />
    <glyph glyph-name="racute" unicode="&#x155;" horiz-adv-x="335" 
d="M75 0zM76 500h49v-74q85 62 193 85v-51q-41 -8 -91.5 -28t-73.5 -36l-27 -15v-381h-50v500zM75 638l201 96l19 -42l-203 -89z" />
    <glyph glyph-name="Rcommaaccent" unicode="&#x156;" horiz-adv-x="614" 
d="M90 0zM90 697h252q108 0 160.5 -49.5t52.5 -154.5q0 -172 -139 -203l149 -290h-56l-145 281h-224v-281h-50v697zM343 327q160 0 160 162q0 83 -39.5 122.5t-121.5 39.5h-202v-324h203zM299 -78h50l-48 -196h-41z" />
    <glyph glyph-name="rcommaaccent" unicode="&#x157;" horiz-adv-x="335" 
d="M37 0zM76 500h49v-74q85 62 193 85v-51q-41 -8 -91.5 -28t-73.5 -36l-27 -15v-381h-50v500zM76 -78h50l-48 -196h-41z" />
    <glyph glyph-name="Rcaron" unicode="&#x158;" horiz-adv-x="614" 
d="M90 0zM90 697h252q108 0 160.5 -49.5t52.5 -154.5q0 -172 -139 -203l149 -290h-56l-145 281h-224v-281h-50v697zM343 327q160 0 160 162q0 83 -39.5 122.5t-121.5 39.5h-202v-324h203zM146 931h59l96 -90l96 90h59l-134 -129h-42z" />
    <glyph glyph-name="rcaron" unicode="&#x159;" horiz-adv-x="335" 
d="M35 0zM76 500h49v-74q85 62 193 85v-51q-41 -8 -91.5 -28t-73.5 -36l-27 -15v-381h-50v500zM90 732l87 -95l85 95h54l-122 -135h-37l-122 135h55z" />
    <glyph glyph-name="Sacute" unicode="&#x15a;" horiz-adv-x="541" 
d="M53 0zM94 6l-36 4l5 46q138 -18 208 -18q166 0 166 161q0 44 -13 68.5t-48.5 40t-105.5 27.5q-84 15 -129.5 35t-66.5 57t-21 102q0 90 53.5 134.5t165.5 44.5q82 0 202 -17l-5 -46q-142 17 -196 17q-168 0 -168 -130q0 -52 12.5 -77t49.5 -40t122 -32q76 -14 118 -33.5
t61.5 -53.5t19.5 -92q0 -108 -52 -160t-163 -52q-67 0 -179 14zM171 828l200 97l20 -43l-202 -90z" />
    <glyph glyph-name="sacute" unicode="&#x15b;" horiz-adv-x="462" 
d="M49 0zM85 3l-30 5l4 44q113 -17 171 -17q70 0 103 24t33 77q0 38 -16.5 57.5t-42 27.5t-70.5 14q-7 2 -23 4q-65 11 -100 25t-50 38t-15 65q0 79 47.5 110t137.5 31q80 0 139 -10l26 -5l-2 -43q-102 16 -165 16q-70 0 -101.5 -23t-31.5 -69q0 -32 15 -49t39.5 -24.5
t71.5 -15.5q7 -2 21 -4q66 -12 100.5 -25.5t52 -39.5t17.5 -74q0 -80 -46.5 -115.5t-143.5 -35.5q-61 0 -141 12zM124 638l201 96l19 -42l-203 -89z" />
    <glyph glyph-name="Scircumflex" unicode="&#x15c;" horiz-adv-x="541" 
d="M53 0zM94 6l-36 4l5 46q138 -18 208 -18q166 0 166 161q0 44 -13 68.5t-48.5 40t-105.5 27.5q-84 15 -129.5 35t-66.5 57t-21 102q0 90 53.5 134.5t165.5 44.5q82 0 202 -17l-5 -46q-142 17 -196 17q-168 0 -168 -130q0 -52 12.5 -77t49.5 -40t122 -32q76 -14 118 -33.5
t61.5 -53.5t19.5 -92q0 -108 -52 -160t-163 -52q-67 0 -179 14zM252 927h42l134 -129h-58l-97 91l-96 -91h-59z" />
    <glyph glyph-name="scircumflex" unicode="&#x15d;" horiz-adv-x="462" 
d="M49 0zM85 3l-30 5l4 44q113 -17 171 -17q70 0 103 24t33 77q0 38 -16.5 57.5t-42 27.5t-70.5 14q-7 2 -23 4q-65 11 -100 25t-50 38t-15 65q0 79 47.5 110t137.5 31q80 0 139 -10l26 -5l-2 -43q-102 16 -165 16q-70 0 -101.5 -23t-31.5 -69q0 -32 15 -49t39.5 -24.5
t71.5 -15.5q7 -2 21 -4q66 -12 100.5 -25.5t52 -39.5t17.5 -74q0 -80 -46.5 -115.5t-143.5 -35.5q-61 0 -141 12zM214 732h37l122 -135h-54l-85 96l-88 -96h-54z" />
    <glyph glyph-name="Scedilla" unicode="&#x15e;" horiz-adv-x="541" 
d="M441 49.5q-47 -52.5 -147 -57.5v-46q58 0 81.5 -15.5t23.5 -56.5t-21 -61t-64 -20q-36 0 -72 4l-11 2l3 35q37 -4 74 -4q46 0 46 43q0 39 -46 39h-50v80q-61 1 -164 14l-36 4l5 46q138 -18 208 -18q166 0 166 161q0 44 -13 68.5t-48.5 40t-105.5 27.5q-84 15 -129.5 35
t-66.5 57t-21 102q0 90 53.5 134.5t165.5 44.5q82 0 202 -17l-5 -46q-142 17 -196 17q-168 0 -168 -130q0 -52 12.5 -77t49.5 -40t122 -32q76 -14 118 -33.5t61.5 -53.5t19.5 -92q0 -102 -47 -154.5z" />
    <glyph glyph-name="scedilla" unicode="&#x15f;" horiz-adv-x="462" 
d="M373 29.5q-43 -35.5 -132 -38.5v-45q58 0 81.5 -15.5t23.5 -56.5t-21 -61t-64 -20q-36 0 -72 4l-11 2l3 35q37 -4 74 -4q46 0 46 43q0 39 -46 39h-50v79q-54 1 -120 12l-30 5l4 44q113 -17 171 -17q70 0 103 24t33 77q0 38 -16.5 57.5t-42 27.5t-70.5 14q-7 2 -23 4
q-65 11 -100 25t-50 38t-15 65q0 79 47.5 110t137.5 31q80 0 139 -10l26 -5l-2 -43q-102 16 -165 16q-70 0 -101.5 -23t-31.5 -69q0 -32 15 -49t39.5 -24.5t71.5 -15.5q7 -2 21 -4q66 -12 100.5 -25.5t52 -39.5t17.5 -74q0 -77 -43 -112.5z" />
    <glyph glyph-name="Scaron" unicode="&#x160;" horiz-adv-x="541" 
d="M53 0zM94 6l-36 4l5 46q138 -18 208 -18q166 0 166 161q0 44 -13 68.5t-48.5 40t-105.5 27.5q-84 15 -129.5 35t-66.5 57t-21 102q0 90 53.5 134.5t165.5 44.5q82 0 202 -17l-5 -46q-142 17 -196 17q-168 0 -168 -130q0 -52 12.5 -77t49.5 -40t122 -32q76 -14 118 -33.5
t61.5 -53.5t19.5 -92q0 -108 -52 -160t-163 -52q-67 0 -179 14zM123 931h59l96 -90l96 90h59l-134 -129h-42z" />
    <glyph glyph-name="scaron" unicode="&#x161;" horiz-adv-x="462" 
d="M49 0zM85 3l-30 5l4 44q113 -17 171 -17q70 0 103 24t33 77q0 38 -16.5 57.5t-42 27.5t-70.5 14q-7 2 -23 4q-65 11 -100 25t-50 38t-15 65q0 79 47.5 110t137.5 31q80 0 139 -10l26 -5l-2 -43q-102 16 -165 16q-70 0 -101.5 -23t-31.5 -69q0 -32 15 -49t39.5 -24.5
t71.5 -15.5q7 -2 21 -4q66 -12 100.5 -25.5t52 -39.5t17.5 -74q0 -80 -46.5 -115.5t-143.5 -35.5q-61 0 -141 12zM155 732l87 -95l85 95h54l-122 -135h-37l-122 135h55z" />
    <glyph glyph-name="uni0162" unicode="&#x162;" horiz-adv-x="526" 
d="M283 0v-54q58 0 81.5 -15.5t23.5 -56.5t-21 -61t-64 -20q-36 0 -72 4l-11 2l3 35q37 -4 74 -4q46 0 46 43q0 39 -46 39h-50v88h-8v651h-226v46h500v-46h-224v-651h-6z" />
    <glyph glyph-name="uni0163" unicode="&#x163;" horiz-adv-x="345" 
d="M29 0zM156 5q-27 16 -39 54.5t-12 109.5v287h-76v44h76v159h48v-159h175v-44h-175v-253q0 -69 5 -102.5t22.5 -50.5t57.5 -17l95 8l4 -42q-70 -10 -106 -10q-48 0 -75 16zM98 -203l-11 2l3 35q37 -4 74 -4q46 0 46 43q0 39 -46 39h-50v89h36v-55q58 0 81.5 -15.5
t23.5 -56.5t-21 -61t-64 -20q-36 0 -72 4z" />
    <glyph glyph-name="Tcaron" unicode="&#x164;" horiz-adv-x="526" 
d="M13 0zM239 651h-226v46h500v-46h-224v-651h-50v651zM108 931h59l96 -90l96 90h59l-134 -129h-42z" />
    <glyph glyph-name="tcaron" unicode="&#x165;" horiz-adv-x="408" 
d="M367 699h47v-223h-47v223zM156 5q-27 16 -39 54.5t-12 109.5v287h-76v44h76v159h48v-159h175v-44h-175v-253q0 -69 5 -102.5t22.5 -50.5t57.5 -17l95 8l4 -42q-70 -10 -106 -10q-48 0 -75 16z" />
    <glyph glyph-name="Tbar" unicode="&#x166;" horiz-adv-x="529" 
d="M242 320h-177v45h177v286h-227v46h500v-46h-224v-286h175v-45h-175v-320h-49v320z" />
    <glyph glyph-name="tbar" unicode="&#x167;" horiz-adv-x="349" 
d="M161 5q-28 16 -40.5 55t-12.5 109v103h-66v41h66v142h-76v45h76v159h49v-159h173v-45h-173v-142h151v-41h-151v-69q0 -76 6 -110t23.5 -45.5t55.5 -11.5l95 6l3 -43q-73 -10 -101 -10q-50 0 -78 16z" />
    <glyph glyph-name="Utilde" unicode="&#x168;" horiz-adv-x="640" 
d="M85 0zM142.5 41q-57.5 50 -57.5 160v496h51v-497q0 -164 180 -164q96 0 142.5 39t46.5 125v497h49v-496q0 -110 -58.5 -160t-177.5 -50q-118 0 -175.5 50zM321 851q-58 29 -74 29q-22 0 -59 -38l-12 -13l-12 39q20 23 43 39t43 16q21 0 81 -28q59 -29 70 -29q19 0 55 36
l11 12l13 -39q-26 -32 -43.5 -42t-35.5 -10q-21 0 -80 28z" />
    <glyph glyph-name="utilde" unicode="&#x169;" horiz-adv-x="521" 
d="M71 0zM132 13q-34 22 -47.5 74.5t-13.5 151.5v261h50v-258q0 -84 9 -127.5t33 -61.5t72 -18q84 0 161 45v420h49v-500h-50v38q-40 -24 -77.5 -35.5t-87.5 -11.5q-64 0 -98 22zM262 650q-54 25 -68 25q-23 0 -60 -33l-13 -10l-13 36q25 27 45 37.5t40 10.5q21 0 75 -25
q56 -25 66 -25q18 0 55 31l12 9l12 -36q-26 -28 -42.5 -37t-35.5 -9t-73 26z" />
    <glyph glyph-name="Umacron" unicode="&#x16a;" horiz-adv-x="640" 
d="M85 0zM142.5 41q-57.5 50 -57.5 160v496h51v-497q0 -164 180 -164q96 0 142.5 39t46.5 125v497h49v-496q0 -110 -58.5 -160t-177.5 -50q-118 0 -175.5 50zM172 866h296v-41h-296v41z" />
    <glyph glyph-name="umacron" unicode="&#x16b;" horiz-adv-x="521" 
d="M71 0zM132 13q-34 22 -47.5 74.5t-13.5 151.5v261h50v-258q0 -84 9 -127.5t33 -61.5t72 -18q84 0 161 45v420h49v-500h-50v38q-40 -24 -77.5 -35.5t-87.5 -11.5q-64 0 -98 22zM123 677h270v-41h-270v41z" />
    <glyph glyph-name="Ubreve" unicode="&#x16c;" horiz-adv-x="640" 
d="M85 0zM142.5 41q-57.5 50 -57.5 160v496h51v-497q0 -164 180 -164q96 0 142.5 39t46.5 125v497h49v-496q0 -110 -58.5 -160t-177.5 -50q-118 0 -175.5 50zM218.5 833q-40.5 34 -41.5 88h46q0 -35 29 -58.5t70 -23.5t69 23t28 59h48q-1 -54 -42.5 -88t-103.5 -34
t-102.5 34z" />
    <glyph glyph-name="ubreve" unicode="&#x16d;" horiz-adv-x="521" 
d="M71 0zM132 13q-34 22 -47.5 74.5t-13.5 151.5v261h50v-258q0 -84 9 -127.5t33 -61.5t72 -18q84 0 161 45v420h49v-500h-50v38q-40 -24 -77.5 -35.5t-87.5 -11.5q-64 0 -98 22zM150.5 629q-39.5 37 -40.5 95h44q2 -42 28 -67t71 -25q43 0 70 25.5t26 66.5h45
q-1 -58 -40 -95t-101 -37q-63 0 -102.5 37z" />
    <glyph glyph-name="Uring" unicode="&#x16e;" horiz-adv-x="640" 
d="M85 0zM142.5 41q-57.5 50 -57.5 160v496h51v-497q0 -164 180 -164q96 0 142.5 39t46.5 125v497h49v-496q0 -110 -58.5 -160t-177.5 -50q-118 0 -175.5 50zM243.5 778.5q-28.5 26.5 -28.5 70.5t29 70t77 26t76 -25.5t28 -70.5q0 -44 -28 -70.5t-76 -26.5q-49 0 -77.5 26.5
zM367.5 806q16.5 16 16.5 43t-16.5 43t-46.5 16q-33 0 -48.5 -14.5t-15.5 -44.5q0 -28 16.5 -43.5t47.5 -15.5q30 0 46.5 16z" />
    <glyph glyph-name="uring" unicode="&#x16f;" horiz-adv-x="521" 
d="M71 0zM132 13q-34 22 -47.5 74.5t-13.5 151.5v261h50v-258q0 -84 9 -127.5t33 -61.5t72 -18q84 0 161 45v420h49v-500h-50v38q-40 -24 -77.5 -35.5t-87.5 -11.5q-64 0 -98 22zM193.5 579q-27.5 29 -27.5 70t27.5 69t67.5 28t67 -28t27 -69t-27 -70t-67 -29t-67.5 29z
M303 605q17 18 17 44t-17 43.5t-42 17.5t-42.5 -17.5t-17.5 -43.5t17.5 -44t42.5 -18t42 18z" />
    <glyph glyph-name="Uhungarumlaut" unicode="&#x170;" horiz-adv-x="640" 
d="M85 0zM142.5 41q-57.5 50 -57.5 160v496h51v-497q0 -164 180 -164q96 0 142.5 39t46.5 125v497h49v-496q0 -110 -58.5 -160t-177.5 -50q-118 0 -175.5 50zM156 789l174 104l27 -32l-174 -102zM348 789l174 103l29 -32l-176 -102z" />
    <glyph glyph-name="uhungarumlaut" unicode="&#x171;" horiz-adv-x="521" 
d="M71 0zM132 13q-34 22 -47.5 74.5t-13.5 151.5v261h50v-258q0 -84 9 -127.5t33 -61.5t72 -18q84 0 161 45v420h49v-500h-50v38q-40 -24 -77.5 -35.5t-87.5 -11.5q-64 0 -98 22zM302 622l157 117l30 -32l-158 -117zM114 622l157 116l30 -31l-157 -117z" />
    <glyph glyph-name="Uogonek" unicode="&#x172;" horiz-adv-x="640" 
d="M554 697v-496q0 -86 -36 -134.5t-108 -66.5q-76 -81 -76 -112q0 -19 13 -32.5t32 -13.5l53 6l5 -42q-42 -8 -72 -8q-33 0 -57 22.5t-24 52.5q0 27 19 58.5t43 55.5l5 5q-10 -1 -33 -1q-118 0 -175.5 50t-57.5 160v496h51v-497q0 -164 180 -164q96 0 142.5 39t46.5 125
v497h49z" />
    <glyph glyph-name="uogonek" unicode="&#x173;" horiz-adv-x="521" 
d="M470 -194q-42 -8 -72 -8q-33 0 -57 22.5t-24 52.5q0 27 19 58.5t43 55.5l16 15v36q-40 -24 -77.5 -35.5t-87.5 -11.5q-64 0 -98 22t-47.5 74.5t-13.5 151.5v261h50v-258q0 -84 9 -127.5t33 -61.5t72 -18q84 0 161 45v420h49v-500h-2q-76 -81 -76 -112q0 -19 13 -32.5
t32 -13.5l53 6z" />
    <glyph glyph-name="Wcircumflex" unicode="&#x174;" horiz-adv-x="867" 
d="M35 0zM35 697h52l132 -651h35l150 643h59l150 -643h35l132 651h51l-145 -697h-111l-142 623l-141 -623h-111zM413 927h42l134 -129h-58l-97 91l-96 -91h-59z" />
    <glyph glyph-name="wcircumflex" unicode="&#x175;" horiz-adv-x="758" 
d="M34 0zM34 500h50l119 -456h12l138 446h52l137 -446h14l117 456h51l-130 -500h-88l-127 428l-127 -428h-89zM361 732h37l122 -135h-54l-85 96l-88 -96h-54z" />
    <glyph glyph-name="Ycircumflex" unicode="&#x176;" horiz-adv-x="530" 
d="M14 0zM240 298l-226 399h59l192 -347l192 347h59l-225 -399v-298h-51v298zM245 931h42l134 -129h-58l-97 91l-96 -91h-59z" />
    <glyph glyph-name="ycircumflex" unicode="&#x177;" horiz-adv-x="476" 
d="M29 0zM244 0h-65l-150 500h50l140 -456h37l141 456h51l-222 -727h-51zM222 732h37l122 -135h-54l-85 96l-88 -96h-54z" />
    <glyph glyph-name="Ydieresis" unicode="&#x178;" horiz-adv-x="530" 
d="M14 0zM240 298l-226 399h59l192 -347l192 347h59l-225 -399v-298h-51v298zM141 899h49v-72h-49v72zM339 899h48v-72h-48v72z" />
    <glyph glyph-name="Zacute" unicode="&#x179;" horiz-adv-x="538" 
d="M44 0zM44 75l394 553v24h-394v45h450v-77l-396 -554v-21h396v-46h-450v76zM167 828l200 97l20 -43l-202 -90z" />
    <glyph glyph-name="zacute" unicode="&#x17a;" horiz-adv-x="455" 
d="M42 0zM42 44l311 412h-311v44h371v-44l-310 -412h310v-44h-371v44zM126 638l201 96l19 -42l-203 -89z" />
    <glyph glyph-name="Zdotaccent" unicode="&#x17b;" horiz-adv-x="538" 
d="M44 0zM44 75l394 553v24h-394v45h450v-77l-396 -554v-21h396v-46h-450v76zM243 882h48v-66h-48v66z" />
    <glyph glyph-name="zdotaccent" unicode="&#x17c;" horiz-adv-x="455" 
d="M42 0zM42 44l311 412h-311v44h371v-44l-310 -412h310v-44h-371v44zM203 698h48v-66h-48v66z" />
    <glyph glyph-name="Zcaron" unicode="&#x17d;" horiz-adv-x="538" 
d="M44 0zM44 75l394 553v24h-394v45h450v-77l-396 -554v-21h396v-46h-450v76zM124 931h59l96 -90l96 90h59l-134 -129h-42z" />
    <glyph glyph-name="zcaron" unicode="&#x17e;" horiz-adv-x="455" 
d="M42 0zM42 44l311 412h-311v44h371v-44l-310 -412h310v-44h-371v44zM143 732l87 -95l85 95h54l-122 -135h-37l-122 135h55z" />
    <glyph glyph-name="florin" unicode="&#x192;" 
d="M51 -233l-14 2l1 44q58 -6 97 -6q41 0 60 30.5t19 104.5v415h-67v43h67v67q0 103 28 157.5t102 54.5q25 0 81 -6l14 -1l-1 -43q-39 5 -90 5q-40 0 -62 -35t-22 -100v-99h155v-43h-155v-415q0 -68 -13.5 -106.5t-42.5 -55.5t-78 -17q-38 0 -79 4z" />
    <glyph glyph-name="Aringacute" unicode="&#x1fa;" horiz-adv-x="593" 
d="M27 0zM182 918l200 97l20 -43l-202 -90zM457 202h-321l-60 -202h-49l200 677q-37 25 -37 77q0 44 29 70t77 26t76 -25.5t28 -70.5q0 -50 -34 -76l200 -678h-49zM247.5 798.5q-15.5 -14.5 -15.5 -44.5q0 -23 11.5 -38t32.5 -19h39q21 4 32.5 19t11.5 38q0 27 -16.5 43
t-46.5 16q-33 0 -48.5 -14.5zM149 249h295l-121 403h-52z" />
    <glyph glyph-name="aringacute" unicode="&#x1fb;" horiz-adv-x="497" 
d="M45 0zM142 812l201 96l19 -42l-203 -89zM79.5 29q-34.5 38 -34.5 107t34 104.5t109 44.5l179 18v48q0 58 -24.5 85.5t-67.5 27.5q-44 0 -82 -3t-119 -12l-3 41q108 19 192 19q79 0 116 -38t37 -120v-277q1 -16 19 -27t50 -15l-2 -41q-36 0 -64.5 11t-44.5 31
q-94 -42 -194 -42q-66 0 -100.5 38zM340 62l27 9v191l-173 -17q-52 -4 -74.5 -29t-22.5 -74q0 -108 87 -108q78 0 156 28zM183.5 579q-27.5 29 -27.5 70t27.5 69t67.5 28t67 -28t27 -69t-27 -70t-67 -29t-67.5 29zM293 605q17 18 17 44t-17 43.5t-42 17.5t-42.5 -17.5
t-17.5 -43.5t17.5 -44t42.5 -18t42 18z" />
    <glyph glyph-name="AEacute" unicode="&#x1fc;" horiz-adv-x="878" 
d="M23 0zM265 699h564v-48h-364v-268h304v-47h-304v-289h364v-47h-414v201h-268l-70 -201h-54zM415 249l1 402h-113l-140 -402h252zM434 828l200 97l20 -43l-202 -90z" />
    <glyph glyph-name="aeacute" unicode="&#x1fd;" horiz-adv-x="813" 
d="M45 0zM77.5 29q-32.5 38 -32.5 114q0 51 17 79.5t55.5 43.5t111.5 23l138 14v48q0 57 -25 84t-76 27q-58 0 -160 -8l-30 -2l-3 46q129 12 190 12q112 0 141 -89q45 89 161 89q103 0 150.5 -57t47.5 -181l-1 -43h-346q0 -98 33.5 -146t101.5 -48q65 0 162 7l29 2l2 -42
q-102 -11 -199 -11q-86 0 -133 56l-36 -15q-86 -41 -204 -41q-62 0 -94.5 38zM713 272q0 104 -33.5 148.5t-108.5 44.5q-77 0 -116 -47t-39 -146h297zM256 43q41 9 72.5 20.5t35.5 17.5v179l-170 -16q-51 -5 -74 -29.5t-23 -74.5q0 -106 84 -106q34 0 75 9zM305 638l201 96
l19 -42l-203 -89z" />
    <glyph glyph-name="Oslashacute" unicode="&#x1fe;" horiz-adv-x="663" 
d="M63 0zM106 -95l59 127q-56 39 -79 114t-23 200q0 126 25.5 204.5t84 117t159.5 38.5q83 0 137 -25l53 113l40 -16l-56 -121q96 -76 96 -311q0 -130 -24.5 -206.5t-83 -112.5t-162.5 -36q-76 0 -131 20l-56 -122zM449 637q-44 24 -117 24q-86 0 -132.5 -32.5t-66 -105
t-19.5 -201.5q0 -189 68 -251zM465.5 66q46.5 30 65 99.5t18.5 196.5q0 185 -63 255l-263 -562q44 -19 109 -19q87 0 133.5 30zM226 828l200 97l20 -43l-202 -90z" />
    <glyph glyph-name="oslashacute" unicode="&#x1ff;" horiz-adv-x="526" 
d="M56 0zM101 -101l44 112q-50 25 -69.5 82t-19.5 165q0 92 20.5 146.5t65.5 79.5t121 25q44 0 82 -9l44 106l37 -15l-44 -106q88 -46 88 -227q0 -102 -17.5 -158.5t-61.5 -82.5t-128 -26q-45 0 -81 9l-44 -114zM329 457l-66 8q-87 0 -121 -42.5t-34 -142.5t9.5 -154
t45.5 -79zM362.5 54.5q32.5 19.5 44.5 68t12 145.5q0 139 -54 178l-166 -405q30 -6 64 -6q67 0 99.5 19.5zM154 638l201 96l19 -42l-203 -89z" />
    <glyph glyph-name="Scommaaccent" unicode="&#x218;" horiz-adv-x="541" 
d="M53 0zM94 6l-36 4l5 46q138 -18 208 -18q166 0 166 161q0 44 -13 68.5t-48.5 40t-105.5 27.5q-84 15 -129.5 35t-66.5 57t-21 102q0 90 53.5 134.5t165.5 44.5q82 0 202 -17l-5 -46q-142 17 -196 17q-168 0 -168 -130q0 -52 12.5 -77t49.5 -40t122 -32q76 -14 118 -33.5
t61.5 -53.5t19.5 -92q0 -108 -52 -160t-163 -52q-67 0 -179 14zM264 -78h50l-48 -196h-41z" />
    <glyph glyph-name="scommaaccent" unicode="&#x219;" horiz-adv-x="462" 
d="M49 0zM85 3l-30 5l4 44q113 -17 171 -17q70 0 103 24t33 77q0 38 -16.5 57.5t-42 27.5t-70.5 14q-7 2 -23 4q-65 11 -100 25t-50 38t-15 65q0 79 47.5 110t137.5 31q80 0 139 -10l26 -5l-2 -43q-102 16 -165 16q-70 0 -101.5 -23t-31.5 -69q0 -32 15 -49t39.5 -24.5
t71.5 -15.5q7 -2 21 -4q66 -12 100.5 -25.5t52 -39.5t17.5 -74q0 -80 -46.5 -115.5t-143.5 -35.5q-61 0 -141 12zM205 -78h50l-48 -196h-41z" />
    <glyph glyph-name="uni021A" unicode="&#x21a;" horiz-adv-x="526" 
d="M13 0zM239 651h-226v46h500v-46h-224v-651h-50v651zM257 -78h50l-48 -196h-41z" />
    <glyph glyph-name="uni021B" unicode="&#x21b;" horiz-adv-x="345" 
d="M29 0zM156 5q-27 16 -39 54.5t-12 109.5v287h-76v44h76v159h48v-159h175v-44h-175v-253q0 -69 5 -102.5t22.5 -50.5t57.5 -17l95 8l4 -42q-70 -10 -106 -10q-48 0 -75 16zM182 -78h50l-48 -196h-41z" />
    <glyph glyph-name="circumflex" unicode="&#x2c6;" horiz-adv-x="222" 
d="M105 732h37l122 -135h-54l-85 96l-88 -96h-54z" />
    <glyph glyph-name="caron" unicode="&#x2c7;" horiz-adv-x="222" 
d="M39 732l87 -95l85 95h54l-122 -135h-37l-122 135h55z" />
    <glyph glyph-name="breve" unicode="&#x2d8;" horiz-adv-x="222" 
d="M24.5 629q-39.5 37 -40.5 95h44q2 -42 28 -67t71 -25q43 0 70 25.5t26 66.5h45q-1 -58 -40 -95t-101 -37q-63 0 -102.5 37z" />
    <glyph glyph-name="dotaccent" unicode="&#x2d9;" horiz-adv-x="222" 
d="M87 698h48v-66h-48v66z" />
    <glyph glyph-name="ring" unicode="&#x2da;" horiz-adv-x="222" 
d="M48.5 579q-27.5 29 -27.5 70t27.5 69t67.5 28t67 -28t27 -69t-27 -70t-67 -29t-67.5 29zM158 605q17 18 17 44t-17 43.5t-42 17.5t-42.5 -17.5t-17.5 -43.5t17.5 -44t42.5 -18t42 18z" />
    <glyph glyph-name="ogonek" unicode="&#x2db;" horiz-adv-x="440" 
d="M199 -179.5q-24 22.5 -24 52.5q0 27 19 58.5t43 55.5l21 20l44 -6q-77 -82 -77 -113q0 -19 13 -32.5t32 -13.5l53 6l5 -42q-42 -8 -72 -8q-33 0 -57 22.5z" />
    <glyph glyph-name="tilde" unicode="&#x2dc;" horiz-adv-x="222" 
d="M121 650q-54 25 -68 25q-23 0 -60 -33l-13 -10l-13 36q25 27 45 37.5t40 10.5q21 0 75 -25q56 -25 66 -25q18 0 55 31l12 9l12 -36q-26 -28 -42.5 -37t-35.5 -9t-73 26z" />
    <glyph glyph-name="hungarumlaut" unicode="&#x2dd;" horiz-adv-x="222" 
d="M137 622l157 117l30 -32l-158 -117zM-51 622l157 116l30 -31l-157 -117z" />
    <glyph glyph-name="pi" unicode="&#x3c0;" 
d="M431.5 11.5q-30.5 12.5 -43 45.5t-12.5 97v302h-187l-29 -456h-50l30 456q-65 0 -106 -10l-10 -3v43q58 14 138 14h228q74 0 124 10l17 5v-43q-31 -13 -106 -14v-304q0 -48 7.5 -71t27.5 -32t60 -9v-43q-58 0 -88.5 12.5z" />
    <glyph glyph-name="uni060C" unicode="&#x60c;" horiz-adv-x="206" 
d="M124 94h42l-45 -217h-54z" />
    <glyph glyph-name="uni0615" unicode="&#x615;" horiz-adv-x="0" 
d="M178.5 906q19.5 -18 19.5 -61v-75h-198v37h18v175h37v-111q14 27 29 40t44 13q31 0 50.5 -18zM74 861q-19 -23 -19 -49v-5h105v38q0 39 -36 39q-31 0 -50 -23z" />
    <glyph glyph-name="uni061B" unicode="&#x61b;" horiz-adv-x="235" 
d="M135 551h42l-44 -217h-55zM83 91h55v-91h-55v91z" />
    <glyph glyph-name="uni061F" unicode="&#x61f;" horiz-adv-x="447" 
d="M238 194v37q0 33 -20.5 61.5t-81.5 80.5q-38 33 -57 56t-26.5 49t-7.5 67q0 86 49.5 123.5t156.5 37.5q53 0 160 -27l-4 -44q-125 26 -160 26q-80 0 -116.5 -26t-36.5 -80q0 -36 5.5 -57.5t22.5 -42.5t54 -54q64 -57 87.5 -89t23.5 -70q0 -21 -5 -48h-44zM233 1v91h55
v-91h-55z" />
    <glyph glyph-name="uni0621" unicode="&#x621;" horiz-adv-x="541" 
d="M494 98l-432 -98l-14 49l102 26q-36 35 -54 79.5t-18 90.5q0 56 26.5 106t75.5 80.5t113 30.5q62 0 129 -27l-11 -51q-49 20 -94 20q-51 0 -90 -24t-60 -63.5t-21 -84.5q0 -86 69 -141l265 67z" />
    <glyph glyph-name="uni0622" unicode="&#x622;" horiz-adv-x="237" 
d="M0 0zM94 640h53v-640h-53v640zM118 722q-24 10 -39.5 16t-23.5 6q-19 0 -53 -31l-9 -7l-9 32q17 19 37 32.5t37 13.5q10 0 24 -4.5t42 -16.5q51 -22 59 -22t24.5 10t26.5 20l8 7l10 -31q-17 -22 -34.5 -34t-31.5 -12q-21 0 -68 21z" />
    <glyph glyph-name="uni0623" unicode="&#x623;" horiz-adv-x="237" 
d="M15 0zM94 640h53v-640h-53v640zM220 708l-197 -38l-8 25l48 13q-31 27 -31 67q0 35 24 60.5t63 25.5q23 0 42.5 -8.5t28.5 -15.5l-8 -29q-6 5 -19 10t-29 5q-28 0 -45 -17.5t-17 -41.5q0 -28 23 -47l116 31z" />
    <glyph glyph-name="uni0624" unicode="&#x624;" horiz-adv-x="483" 
d="M40 0zM332 513.5q53 -5.5 87 -11.5v-451q0 -118 -18 -183.5t-52.5 -90.5t-90.5 -25q-43 0 -141 13v45q86 -12 139 -12q36 0 59.5 13t38 57t14.5 132h-160q-71 0 -108 36.5t-48.5 93t-11.5 136.5q0 79 15.5 133.5t61 87t130.5 32.5q32 0 85 -5.5zM120 102.5
q28 -56.5 113 -56.5h134v6l-1 19l1 -2v396q-76 8 -104 8q-71 0 -108.5 -28t-50.5 -75.5t-12 -119.5q0 -91 28 -147.5zM334 629l-197 -38l-8 25l48 13q-31 27 -31 67q0 35 24 60.5t63 25.5q23 0 42.5 -8.5t28.5 -15.5l-8 -29q-6 5 -19 10t-29 5q-28 0 -45 -17.5t-17 -41.5
q0 -28 23 -47l116 31z" />
    <glyph glyph-name="uni0625" unicode="&#x625;" horiz-adv-x="237" 
d="M32 0zM94 726h53v-726h-53v726zM238 -209l-198 -39l-8 26l49 13q-32 28 -32 67q0 34 24.5 59.5t63.5 25.5q23 0 42.5 -8.5t28.5 -15.5l-9 -28q-6 5 -19 10t-29 5q-28 0 -45 -17.5t-17 -42.5q0 -28 23 -47l116 31z" />
    <glyph glyph-name="uni0626" unicode="&#x626;" horiz-adv-x="821" 
d="M40 0zM157.5 -221q-56.5 27 -87 73.5t-30.5 101.5q0 27 7.5 91t18.5 139l50 -8q-24 -165 -24 -206q0 -52 27 -91t71.5 -60t94.5 -21l258 -1q53 0 91 25t57 65t19 84q0 45 -13.5 74t-50 49t-104.5 33q-84 16 -129.5 36t-66.5 56.5t-21 101.5q0 90 53.5 134.5t165.5 44.5
q81 0 203 -17l-6 -46q-151 18 -196 18q-84 0 -126 -33t-42 -98q0 -52 12.5 -76.5t49.5 -39.5t123 -32q107 -21 153 -67t46 -133q0 -61 -23 -112t-71.5 -81.5t-120.5 -30.5h-256q-76 0 -132.5 27zM251 297l-197 -38l-8 25l48 13q-31 27 -31 67q0 35 24 60.5t63 25.5
q23 0 42.5 -8.5t28.5 -15.5l-8 -29q-6 5 -19 10t-29 5q-28 0 -45 -17.5t-17 -41.5q0 -28 23 -47l116 31z" />
    <glyph glyph-name="uni0627" unicode="&#x627;" horiz-adv-x="237" 
d="M94 726h53v-726h-53v726z" />
    <glyph glyph-name="uni0628" unicode="&#x628;" horiz-adv-x="732" 
d="M54 0zM647 500v-500h-346q-101 0 -154.5 17t-73 49t-19.5 84q0 71 31 239l39 -2q-4 -38 -11 -91q-13 -98 -13 -134q0 -49 19.5 -73.5t63 -33.5t124.5 -9h288v454h52zM340 -80h55v-65h-55v65z" />
    <glyph glyph-name="uni0629" unicode="&#x629;" horiz-adv-x="532" 
d="M40 0zM343 507q71 -3 125 -7v-500h-206q-86 0 -134 26.5t-68 80.5t-20 143q0 136 46.5 198t159.5 62q26 0 97 -3zM109 134q17 -45 57.5 -66.5t111.5 -21.5h138v410q-117 7 -150 7q-95 0 -134.5 -50t-39.5 -160q0 -74 17 -119zM171 659h64v-66h-64v66zM284 659h64v-66h-64
v66z" />
    <glyph glyph-name="uni062A" unicode="&#x62a;" horiz-adv-x="732" 
d="M54 0zM647 500v-500h-346q-101 0 -154.5 17t-73 49t-19.5 84q0 71 31 239l39 -2q-4 -38 -11 -91q-13 -98 -13 -134q0 -49 19.5 -73.5t63 -33.5t124.5 -9h288v454h52zM280 566h64v-66h-64v66zM393 566h64v-66h-64v66z" />
    <glyph glyph-name="uni062B" unicode="&#x62b;" horiz-adv-x="732" 
d="M54 0zM647 500v-500h-346q-101 0 -154.5 17t-73 49t-19.5 84q0 71 31 239l39 -2q-4 -38 -11 -91q-13 -98 -13 -134q0 -49 19.5 -73.5t63 -33.5t124.5 -9h288v454h52zM333 683h66v-68h-66v68zM278 568h64v-68h-64v68zM391 568h64v-68h-64v68z" />
    <glyph glyph-name="uni062C" unicode="&#x62c;" horiz-adv-x="536" 
d="M40 0zM133 14q-38 -35 -38 -114q0 -171 186 -171q70 0 184 24l6 -43q-121 -26 -201 -26q-114 0 -172 55.5t-58 162.5q0 100 51 147.5t151 47.5q61 0 109 -14.5t72 -33.5v304q0 53 -29.5 80.5t-83.5 27.5q-46 0 -204 -24l-3 43l21 4q141 26 195 26q63 0 110 -37t47 -137
v-336h-53q-29 19 -76.5 34t-101.5 15q-74 0 -112 -35zM286 -109h64v-68h-64v68z" />
    <glyph glyph-name="uni062D" unicode="&#x62d;" horiz-adv-x="536" 
d="M133 14q-38 -35 -38 -114q0 -171 186 -171q70 0 184 24l6 -43q-121 -26 -201 -26q-114 0 -172 55.5t-58 162.5q0 100 51 147.5t151 47.5q61 0 109 -14.5t72 -33.5v304q0 53 -29.5 80.5t-83.5 27.5q-46 0 -204 -24l-3 43l21 4q141 26 195 26q63 0 110 -37t47 -137v-336
h-53q-29 19 -76.5 34t-101.5 15q-74 0 -112 -35z" />
    <glyph glyph-name="uni062E" unicode="&#x62e;" horiz-adv-x="536" 
d="M40 0zM133 14q-38 -35 -38 -114q0 -171 186 -171q70 0 184 24l6 -43q-121 -26 -201 -26q-114 0 -172 55.5t-58 162.5q0 100 51 147.5t151 47.5q61 0 109 -14.5t72 -33.5v304q0 53 -29.5 80.5t-83.5 27.5q-46 0 -204 -24l-3 43l21 4q141 26 195 26q63 0 110 -37t47 -137
v-336h-53q-29 19 -76.5 34t-101.5 15q-74 0 -112 -35zM238 657h55v-64h-55v64z" />
    <glyph glyph-name="uni062F" unicode="&#x62f;" horiz-adv-x="478" 
d="M345.5 447q73.5 -73 73.5 -253v-194h-379v46h327v151q0 156 -61 217t-143 61h-72l-3 36q1 2 27.5 5.5t52.5 3.5q104 0 177.5 -73z" />
    <glyph glyph-name="uni0630" unicode="&#x630;" horiz-adv-x="478" 
d="M40 0zM345.5 447q73.5 -73 73.5 -253v-194h-379v46h327v151q0 156 -61 217t-143 61h-72l-3 36q1 2 27.5 5.5t52.5 3.5q104 0 177.5 -73zM113 684h55v-64h-55v64z" />
    <glyph glyph-name="uni0631" unicode="&#x631;" horiz-adv-x="354" 
d="M40 -244v45q58 -4 76 -4q55 0 82.5 44.5t27.5 122.5v535h53v-517q0 -116 -40.5 -173.5t-124.5 -57.5q-14 0 -74 5z" />
    <glyph glyph-name="uni0632" unicode="&#x632;" horiz-adv-x="354" 
d="M40 0zM40 -244v45q58 -4 76 -4q55 0 82.5 44.5t27.5 122.5v535h53v-517q0 -116 -40.5 -173.5t-124.5 -57.5q-14 0 -74 5zM223 657h55v-64h-55v64z" />
    <glyph glyph-name="uni0633" unicode="&#x633;" horiz-adv-x="1121" 
d="M1037 382.5q10 -62.5 10 -104.5v-278h-177q-27 0 -53.5 10t-57.5 34q-33 -44 -92 -44h-137v-40q0 -74 -36.5 -120.5t-90.5 -67t-109 -20.5q-59 0 -117.5 22t-97.5 68t-39 114q0 36 12 130.5t26 183.5l51 -2q-14 -87 -24.5 -175.5t-10.5 -122.5q0 -54 28.5 -93t73 -59
t91.5 -20q48 0 92 20t71.5 56.5t27.5 84.5v491h52v-404h122q50 0 70.5 43t20.5 109v252h52v-251q0 -67 -15 -113q17 -16 44 -28t53 -12h118v252q0 50 -18 178l-3 21l39 3q14 -55 24 -117.5z" />
    <glyph glyph-name="uni0634" unicode="&#x634;" horiz-adv-x="1121" 
d="M40 0zM1037 382.5q10 -62.5 10 -104.5v-278h-177q-27 0 -53.5 10t-57.5 34q-33 -44 -92 -44h-137v-40q0 -74 -36.5 -120.5t-90.5 -67t-109 -20.5q-59 0 -117.5 22t-97.5 68t-39 114q0 36 12 130.5t26 183.5l51 -2q-14 -87 -24.5 -175.5t-10.5 -122.5q0 -54 28.5 -93
t73 -59t91.5 -20q48 0 92 20t71.5 56.5t27.5 84.5v491h52v-404h122q50 0 70.5 43t20.5 109v252h52v-251q0 -67 -15 -113q17 -16 44 -28t53 -12h118v252q0 50 -18 178l-3 21l39 3q14 -55 24 -117.5zM733 776h66v-68h-66v68zM678 661h64v-68h-64v68zM791 661h64v-68h-64v68z
" />
    <glyph glyph-name="uni0635" unicode="&#x635;" horiz-adv-x="1101" 
d="M1041 0h-511v-40q0 -74 -36.5 -120.5t-90.5 -67t-109 -20.5q-59 0 -117.5 22t-97.5 68.5t-39 115.5q0 70 38 312l51 -2q-35 -235 -35 -296q0 -55 28.5 -94.5t73 -59.5t91.5 -20t91 20t72 56.5t28 84.5v541h52v-160q45 56 81.5 91t85.5 57t113 22q126 0 178.5 -77.5
t52.5 -181.5v-251zM703.5 437q-49.5 -27 -82.5 -60.5t-70 -78.5q-16 -20 -21 -25v-227h459v201q0 93 -44.5 155t-132.5 62q-59 0 -108.5 -27z" />
    <glyph glyph-name="uni0636" unicode="&#x636;" horiz-adv-x="1101" 
d="M40 0zM1041 0h-511v-40q0 -74 -36.5 -120.5t-90.5 -67t-109 -20.5q-59 0 -117.5 22t-97.5 68.5t-39 115.5q0 70 38 312l51 -2q-35 -235 -35 -296q0 -55 28.5 -94.5t73 -59.5t91.5 -20t91 20t72 56.5t28 84.5v541h52v-160q45 56 81.5 91t85.5 57t113 22q126 0 178.5 -77.5
t52.5 -181.5v-251zM703.5 437q-49.5 -27 -82.5 -60.5t-70 -78.5q-16 -20 -21 -25v-227h459v201q0 93 -44.5 155t-132.5 62q-59 0 -108.5 -27zM728 657h55v-64h-55v64z" />
    <glyph glyph-name="uni0637" unicode="&#x637;" horiz-adv-x="707" 
d="M594.5 432.5q52.5 -77.5 52.5 -181.5v-251h-617v46h54v680h52v-386q45 56 81.5 91t85.5 57t113 22q126 0 178.5 -77.5zM309.5 437q-49.5 -27 -82.5 -60.5t-70 -78.5q-16 -20 -21 -25v-227h459v201q0 93 -44.5 155t-132.5 62q-59 0 -108.5 -27z" />
    <glyph glyph-name="uni0638" unicode="&#x638;" horiz-adv-x="707" 
d="M30 0zM594.5 432.5q52.5 -77.5 52.5 -181.5v-251h-617v46h54v680h52v-386q45 56 81.5 91t85.5 57t113 22q126 0 178.5 -77.5zM309.5 437q-49.5 -27 -82.5 -60.5t-70 -78.5q-16 -20 -21 -25v-227h459v201q0 93 -44.5 155t-132.5 62q-59 0 -108.5 -27zM329 657h55v-64h-55
v64z" />
    <glyph glyph-name="uni0639" unicode="&#x639;" horiz-adv-x="497" 
d="M474 -246l6 -42q-47 -11 -104.5 -19.5t-105.5 -8.5q-115 0 -172.5 56t-57.5 165q0 59 22 110t99 72q-26 38 -40.5 89.5t-14.5 102.5q0 96 45 163t154 67q43 0 90 -11.5t85 -34.5l-2 -43q-4 6 -31.5 16.5t-64 18.5t-70.5 8q-78 0 -114.5 -49.5t-36.5 -138.5
q0 -58 16 -101.5t49 -76.5h18q103 0 172 -48v-49q-31 19 -76 34t-98 15q-74 0 -112 -35t-38 -114q0 -171 189 -171q75 0 193 25z" />
    <glyph glyph-name="uni063A" unicode="&#x63a;" horiz-adv-x="497" 
d="M40 0zM474 -246l6 -42q-47 -11 -104.5 -19.5t-105.5 -8.5q-115 0 -172.5 56t-57.5 165q0 59 22 110t99 72q-26 38 -40.5 89.5t-14.5 102.5q0 96 45 163t154 67q43 0 90 -11.5t85 -34.5l-2 -43q-4 6 -31.5 16.5t-64 18.5t-70.5 8q-78 0 -114.5 -49.5t-36.5 -138.5
q0 -58 16 -101.5t49 -76.5h18q103 0 172 -48v-49q-31 19 -76 34t-98 15q-74 0 -112 -35t-38 -114q0 -171 189 -171q75 0 193 25zM282 657h55v-64h-55v64z" />
    <glyph glyph-name="uni0640" unicode="&#x640;" horiz-adv-x="250" 
d="M0 46h250v-46h-250v46z" />
    <glyph glyph-name="uni0641" unicode="&#x641;" horiz-adv-x="940" 
d="M40 0zM875 490v-490h-588q-101 0 -154.5 17t-73 49t-19.5 84q0 39 9.5 106t22.5 133l40 -2l-4 -30q-22 -143 -22 -195q0 -49 19.5 -73.5t63 -33.5t124.5 -9h240q-19 33 -26 75t-7 107q0 109 19 166.5t66 81t139 23.5q72 0 134 -7zM592 46h231v405q-77 5 -108 5
q-67 0 -102.5 -22.5t-49 -68t-13.5 -123.5q0 -154 42 -196zM706 657h55v-64h-55v64z" />
    <glyph glyph-name="uni0642" unicode="&#x642;" horiz-adv-x="837" 
d="M40 0zM762 490v-527q0 -94 -59.5 -147t-159.5 -53h-281q-100 0 -161 53.5t-61 147.5q0 74 34 270l50 -8q-16 -104 -23 -157t-7 -87q0 -82 43.5 -127.5t128.5 -45.5h271q87 0 130 45t43 129v17h-154q-65 0 -101.5 21.5t-52.5 71t-16 139.5t17.5 148t62 89t125.5 31
q26 0 74 -2.5t80 -5.5zM451.5 123q13.5 -41 44 -59t83.5 -18h131v403l-21 2q-78 6 -87 6q-93 0 -128.5 -53t-35.5 -167q0 -73 13.5 -114zM515 659h64v-66h-64v66zM628 659h64v-66h-64v66z" />
    <glyph glyph-name="uni0643" unicode="&#x643;" horiz-adv-x="743" 
d="M54 0zM648 726v-726h-346q-101 0 -155 17t-73.5 49t-19.5 84q0 63 27 210l41 -2q-4 -31 -7 -49q-15 -109 -15 -147q0 -49 19.5 -73.5t63 -33.5t124.5 -9h289v680h52zM439 399l-197 -38l-8 25l48 13q-31 27 -31 67q0 35 24 60.5t63 25.5q23 0 42.5 -8.5t28.5 -15.5l-8 -29
q-6 5 -19 10t-29 5q-28 0 -45 -17.5t-17 -41.5q0 -28 23 -47l116 31z" />
    <glyph glyph-name="uni0644" unicode="&#x644;" horiz-adv-x="624" 
d="M164.5 -223.5q-57.5 24.5 -91 70.5t-33.5 107q0 39 13 134t29 184l51 -3q-39 -252 -39 -314q0 -47 26 -82.5t70.5 -55t98.5 -19.5q78 0 133.5 39.5t55.5 118.5v770h52v-777q0 -68 -34.5 -112.5t-89.5 -64.5t-116 -20q-68 0 -125.5 24.5z" />
    <glyph glyph-name="uni0645" unicode="&#x645;" horiz-adv-x="583" 
d="M457.5 452q60.5 -58 60.5 -202v-250h-321q-110 0 -110 -137q0 -68 27 -188l-44 -2q-15 72 -22 116.5t-7 87.5q0 136 85 162q-14 86 -14 203q0 73 6.5 139t14.5 105q23 9 66 16.5t88 7.5q110 0 170.5 -58zM466 46v204q0 117 -49.5 165.5t-142.5 48.5q-45 0 -93 -11
q-15 -105 -15 -211q0 -102 13 -196h287z" />
    <glyph glyph-name="uni0646" unicode="&#x646;" horiz-adv-x="592" 
d="M40 0zM164.5 -223.5q-57.5 24.5 -91 70.5t-33.5 107q0 39 13 134t29 184l51 -3q-39 -252 -39 -314q0 -47 26 -82.5t70.5 -55t98.5 -19.5q78 0 133.5 39.5t55.5 118.5v544h52v-551q0 -68 -34.5 -112.5t-89.5 -64.5t-116 -20q-68 0 -125.5 24.5zM265 564h55v-64h-55v64z
" />
    <glyph glyph-name="uni0647" unicode="&#x647;" horiz-adv-x="532" 
d="M343 507q71 -3 125 -7v-500h-206q-86 0 -134 26.5t-68 80.5t-20 143q0 136 46.5 198t159.5 62q26 0 97 -3zM109 134q17 -45 57.5 -66.5t111.5 -21.5h138v410q-117 7 -150 7q-95 0 -134.5 -50t-39.5 -160q0 -74 17 -119z" />
    <glyph glyph-name="uni0648" unicode="&#x648;" horiz-adv-x="483" 
d="M332 513.5q53 -5.5 87 -11.5v-451q0 -118 -18 -183.5t-52.5 -90.5t-90.5 -25q-43 0 -141 13v45q86 -12 139 -12q36 0 59.5 13t38 57t14.5 132h-160q-71 0 -108 36.5t-48.5 93t-11.5 136.5q0 79 15.5 133.5t61 87t130.5 32.5q32 0 85 -5.5zM120 102.5q28 -56.5 113 -56.5
h134v6l-1 19l1 -2v396q-76 8 -104 8q-71 0 -108.5 -28t-50.5 -75.5t-12 -119.5q0 -91 28 -147.5z" />
    <glyph glyph-name="uni0649" unicode="&#x649;" horiz-adv-x="821" 
d="M157.5 -221q-56.5 27 -87 73.5t-30.5 101.5q0 27 7.5 91t18.5 139l50 -8q-24 -165 -24 -206q0 -52 27 -91t71.5 -60t94.5 -21l258 -1q53 0 91 25t57 65t19 84q0 45 -13.5 74t-50 49t-104.5 33q-84 16 -129.5 36t-66.5 56.5t-21 101.5q0 90 53.5 134.5t165.5 44.5
q81 0 203 -17l-6 -46q-151 18 -196 18q-84 0 -126 -33t-42 -98q0 -52 12.5 -76.5t49.5 -39.5t123 -32q107 -21 153 -67t46 -133q0 -61 -23 -112t-71.5 -81.5t-120.5 -30.5h-256q-76 0 -132.5 27z" />
    <glyph glyph-name="uni064A" unicode="&#x64a;" horiz-adv-x="821" 
d="M40 0zM157.5 -221q-56.5 27 -87 73.5t-30.5 101.5q0 27 7.5 91t18.5 139l50 -8q-24 -165 -24 -206q0 -52 27 -91t71.5 -60t94.5 -21l258 -1q53 0 91 25t57 65t19 84q0 45 -13.5 74t-50 49t-104.5 33q-84 16 -129.5 36t-66.5 56.5t-21 101.5q0 90 53.5 134.5t165.5 44.5
q81 0 203 -17l-6 -46q-151 18 -196 18q-84 0 -126 -33t-42 -98q0 -52 12.5 -76.5t49.5 -39.5t123 -32q107 -21 153 -67t46 -133q0 -61 -23 -112t-71.5 -81.5t-120.5 -30.5h-256q-76 0 -132.5 27zM306 -320h64v-66h-64v66zM419 -320h64v-66h-64v66z" />
    <glyph glyph-name="uni064B" unicode="&#x64b;" horiz-adv-x="0" 
d="M0 693zM-104 734l208 41v-41l-208 -41v41zM-104 820l208 41v-41l-208 -41v41z" />
    <glyph glyph-name="uni064C" unicode="&#x64c;" horiz-adv-x="0" 
d="M99 797l-8 -2l-199 -39q-4 11 -26 93l28 9l21 -67l43 11q-14 32 -14 67q0 30 16 49t53 19q40 0 63.5 -21.5t23.5 -63.5q0 -13 -1 -20v-35zM-22 868q0 -25 17 -57l65 17q3 11 3 27q0 49 -45 49q-40 0 -40 -36z" />
    <glyph glyph-name="uni064D" unicode="&#x64d;" horiz-adv-x="0" 
d="M0 -9zM-104 -50l207 41v-41l-207 -41v41zM-104 -142l207 41v-41l-207 -41v41z" />
    <glyph glyph-name="uni064E" unicode="&#x64e;" horiz-adv-x="0" 
d="M-104 734l208 41v-41l-208 -41v41z" />
    <glyph glyph-name="uni064F" unicode="&#x64f;" horiz-adv-x="0" 
d="M99 797l-8 -2l-199 -39v29l66 17q-14 32 -14 67q0 30 16 49t53 19q40 0 63.5 -21.5t23.5 -63.5q0 -13 -1 -20v-35zM-22 868q0 -25 17 -57l65 17q3 11 3 27q0 49 -45 49q-40 0 -40 -36z" />
    <glyph glyph-name="uni0650" unicode="&#x650;" horiz-adv-x="0" 
d="M-104 -50l207 41v-41l-207 -41v41z" />
    <glyph glyph-name="uni0651" unicode="&#x651;" horiz-adv-x="0" 
d="M-53 694q-27 0 -39 13t-12 40t2 49l29 7v-43q0 -16 7 -26.5t23 -7.5q13 1 20.5 12t7.5 28v34l32 7v-37q0 -11 10 -19.5t23 -4.5l23 4v84l27 5q4 -21 4 -52v-59l-54 -10q-12 -2 -16 -2q-24 0 -32 19q-2 -15 -8.5 -25t-29.5 -15q-6 -1 -17 -1z" />
    <glyph glyph-name="uni0652" unicode="&#x652;" horiz-adv-x="0" 
d="M-60 718.5q-24 26.5 -24 64.5q0 36 24 62.5t59 26.5q36 0 61 -26.5t25 -62.5q0 -38 -25.5 -64.5t-60.5 -26.5t-59 26.5zM36 742q15 17 15 41q0 23 -15 39t-36 16t-35.5 -16t-14.5 -39q0 -24 14.5 -41t35.5 -17t36 17z" />
    <glyph glyph-name="uni0653" unicode="&#x653;" horiz-adv-x="0" 
d="M-2 782q-24 10 -39.5 16t-23.5 6q-19 0 -53 -31l-9 -7l-9 32q17 19 37 32.5t37 13.5q10 0 24 -4.5t42 -16.5q51 -22 59 -22t24.5 10t26.5 20l8 7l10 -31q-17 -22 -34.5 -34t-31.5 -12q-21 0 -68 21z" />
    <glyph glyph-name="uni0654" unicode="&#x654;" horiz-adv-x="0" 
d="M107 795l-197 -38l-8 25l48 13q-31 27 -31 67q0 35 24 60.5t63 25.5q23 0 42.5 -8.5t28.5 -15.5l-8 -29q-6 5 -19 10t-29 5q-28 0 -45 -17.5t-17 -41.5q0 -28 23 -47l116 31z" />
    <glyph glyph-name="uni0655" unicode="&#x655;" horiz-adv-x="0" 
d="M109 -210l-198 -39l-8 26l49 13q-32 28 -32 67q0 34 24.5 59.5t63.5 25.5q23 0 42.5 -8.5t28.5 -15.5l-9 -28q-6 5 -19 10t-29 5q-28 0 -45 -17.5t-17 -42.5q0 -28 23 -47l116 31z" />
    <glyph glyph-name="uni0656" unicode="&#x656;" horiz-adv-x="0" 
d="M-22 21l44 19v-175l-44 -18v174z" />
    <glyph glyph-name="uni0658" unicode="&#x658;" horiz-adv-x="0" 
d="M-65 693.5q-24 21.5 -24 52.5q0 22 14 115h26l-6 -40q-9 -52 -9 -70q0 -26 17.5 -41t47.5 -15q28 0 46 13t18 40v198h24v-202q0 -32 -23 -52t-64 -20q-43 0 -67 21.5z" />
    <glyph glyph-name="uni0660" unicode="&#x660;" horiz-adv-x="249" 
d="M80 267h89v-116h-89v116z" />
    <glyph glyph-name="uni0661" unicode="&#x661;" horiz-adv-x="307" 
d="M127 660h53v-660h-53v660z" />
    <glyph glyph-name="uni0662" unicode="&#x662;" horiz-adv-x="503" 
d="M120 660h52v-134q0 -77 27.5 -113t84.5 -36q66 0 91.5 37t25.5 113v133h52v-137q0 -98 -46.5 -144.5t-125.5 -46.5q-81 0 -109 52v-384h-52v660z" />
    <glyph glyph-name="uni0663" unicode="&#x663;" horiz-adv-x="677" 
d="M116 660h51v-174q0 -50 16.5 -80t67.5 -30t68.5 30t17.5 79v175h49v-174q0 -108 85 -108q46 0 63 29t17 79v174h57v-176q0 -73 -32.5 -113.5t-99.5 -40.5q-40 0 -73 15t-46 45q-11 -31 -37 -45.5t-59 -14.5q-31 0 -56 13t-37 42v-385h-52v660z" />
    <glyph glyph-name="uni0664" unicode="&#x664;" horiz-adv-x="494" 
d="M426 46v-46h-206q-73 0 -108.5 33t-35.5 78q0 103 220 232q-56 -3 -99 20t-67 64t-24 88q0 66 50.5 104.5t150.5 38.5q61 0 94 -11l-3 -43q-72 8 -101 8q-64 0 -102.5 -26t-38.5 -78q0 -33 15.5 -62t44 -46.5t66.5 -17.5h105l-6 -50q-111 -57 -181 -110.5t-70 -106.5
q0 -30 23.5 -49.5t68.5 -19.5h204z" />
    <glyph glyph-name="uni0665" unicode="&#x665;" horiz-adv-x="597" 
d="M124 96.5q-52 97.5 -52 232.5q0 130 49 234t177 104q129 0 177.5 -104t48.5 -234q0 -135 -51.5 -232.5t-174.5 -97.5q-122 0 -174 97.5zM432.5 128.5q39.5 84.5 39.5 201.5q0 113 -37.5 202.5t-136.5 89.5t-136 -89t-37 -203q0 -117 39.5 -201.5t133.5 -84.5
q95 0 134.5 84.5z" />
    <glyph glyph-name="uni0666" unicode="&#x666;" horiz-adv-x="432" 
d="M257 616h-227v44h279v-660h-52v616z" />
    <glyph glyph-name="uni0667" unicode="&#x667;" horiz-adv-x="584" 
d="M542 649l-216 -649h-81l-208 649h61l190 -606h2q1 12 85 272t110 334h57z" />
    <glyph glyph-name="uni0668" unicode="&#x668;" horiz-adv-x="584" 
d="M374.5 337q-83.5 258 -84.5 269h-2q0 1 -180 -574l-10 -32h-61l208 649h81l216 -649h-57q-27 79 -110.5 337z" />
    <glyph glyph-name="uni0669" unicode="&#x669;" horiz-adv-x="561" 
d="M391 266q-30 -9 -67.5 -14t-69.5 -5q-118 0 -165 63.5t-47 144.5q0 97 66.5 151t176.5 54q33 0 78 -5.5t80 -11.5v-643h-52v266zM391 309v290q-8 4 -44 10.5t-75 6.5q-84 0 -131 -41.5t-47 -119.5t47 -121t118 -43q47 0 132 18z" />
    <glyph glyph-name="uni066A" unicode="&#x66a;" 
d="M34 0zM168 -2l192 675l37 -11l-192 -674zM62 430.5q-28 35.5 -28 105.5q0 133 106 133q105 0 105 -133q0 -70 -28 -105.5t-77 -35.5q-50 0 -78 35.5zM187 459q15 25 15 78q0 49 -14 71.5t-47 22.5q-32 0 -47 -22.5t-15 -71.5q0 -103 62 -103q31 0 46 25zM343.5 26.5
q-27.5 35.5 -27.5 104.5q0 134 106 134q52 0 78 -34t26 -98q0 -70 -28 -106t-78 -36q-49 0 -76.5 35.5zM468.5 53.5q13.5 24.5 13.5 76.5t-13.5 74t-46.5 22q-34 0 -48 -21.5t-14 -71.5q0 -55 15 -79.5t47 -24.5q33 0 46.5 24.5z" />
    <glyph glyph-name="uni066B" unicode="&#x66b;" horiz-adv-x="168" 
d="M84 94h55l-57 -217h-42z" />
    <glyph glyph-name="uni066C" unicode="&#x66c;" horiz-adv-x="148" 
d="M68 69h42l-40 -148h-32z" />
    <glyph glyph-name="uni066D" unicode="&#x66d;" horiz-adv-x="418" 
d="M193 505l-109 -79l-24 32l109 79l-107 79l24 33l108 -80l42 128l38 -12l-41 -129h133v-40h-136l42 -127l-38 -12z" />
    <glyph glyph-name="uni066E" unicode="&#x66e;" horiz-adv-x="732" 
d="M647 500v-500h-346q-101 0 -154.5 17t-73 49t-19.5 84q0 71 31 239l39 -2q-4 -38 -11 -91q-13 -98 -13 -134q0 -49 19.5 -73.5t63 -33.5t124.5 -9h288v454h52z" />
    <glyph glyph-name="uni066F" unicode="&#x66f;" horiz-adv-x="837" 
d="M762 490v-527q0 -94 -59.5 -147t-159.5 -53h-281q-100 0 -161 53.5t-61 147.5q0 74 34 270l50 -8q-16 -104 -23 -157t-7 -87q0 -82 43.5 -127.5t128.5 -45.5h271q87 0 130 45t43 129v17h-154q-65 0 -101.5 21.5t-52.5 71t-16 139.5t17.5 148t62 89t125.5 31q26 0 74 -2.5
t80 -5.5zM451.5 123q13.5 -41 44 -59t83.5 -18h131v403l-21 2q-78 6 -87 6q-93 0 -128.5 -53t-35.5 -167q0 -73 13.5 -114z" />
    <glyph glyph-name="uni0670" unicode="&#x670;" horiz-adv-x="0" 
d="M-21 832l42 18v-174l-42 -18v174z" />
    <glyph glyph-name="uni0671" unicode="&#x671;" horiz-adv-x="237" 
d="M0 0zM94 640h53v-640h-53v640zM-1 723h47q0 26 13.5 49.5t39.5 38.5t59 15q39 0 61.5 -23t22.5 -80v-32h-243v32zM211 723q0 74 -61 74q-34 0 -58 -19t-24 -55h143z" />
    <glyph glyph-name="uni0679" unicode="&#x679;" horiz-adv-x="732" 
d="M54 0zM647 500v-500h-346q-101 0 -154.5 17t-73 49t-19.5 84q0 71 31 239l39 -2q-4 -38 -11 -91q-13 -98 -13 -134q0 -49 19.5 -73.5t63 -33.5t124.5 -9h288v454h52zM444.5 636q19.5 -18 19.5 -61v-75h-198v37h18v175h37v-111q14 27 29 40t44 13q31 0 50.5 -18zM340 591
q-19 -23 -19 -49v-5h105v38q0 39 -36 39q-31 0 -50 -23z" />
    <glyph glyph-name="uni067E" unicode="&#x67e;" horiz-adv-x="732" 
d="M54 0zM647 500v-500h-346q-101 0 -154.5 17t-73 49t-19.5 84q0 71 31 239l39 -2q-4 -38 -11 -91q-13 -98 -13 -134q0 -49 19.5 -73.5t63 -33.5t124.5 -9h288v454h52zM278 -80h64v-68h-64v68zM391 -80h64v-68h-64v68zM333 -196h66v-67h-66v67z" />
    <glyph glyph-name="uni0686" unicode="&#x686;" horiz-adv-x="557" 
d="M286 -271l8 -46q-8 1 -20 1q-114 0 -172 55.5t-58 162.5q0 100 51 147.5t151 47.5q49 0 93 -11t89 -37v304q0 53 -29.5 80.5t-84.5 27.5q-43 0 -204 -24l-2 43q83 15 131 22.5t84 7.5q63 0 110 -37t47 -137v-336h-52q-30 19 -78 34t-100 15q-75 0 -112.5 -35t-37.5 -114
q0 -171 186 -171zM261 -85h72v-84h-72v84zM485 -85v-84h-72v84h72zM339 -208h66v-76h-66v76z" />
    <glyph glyph-name="uni0688" unicode="&#x688;" horiz-adv-x="478" 
d="M39 0zM345.5 447q73.5 -73 73.5 -253v-194h-379v46h327v151q0 156 -61 217t-143 61h-72l-3 36q1 2 27.5 5.5t52.5 3.5q104 0 177.5 -73zM217.5 756q19.5 -18 19.5 -61v-75h-198v37h18v175h37v-111q14 27 29 40t44 13q31 0 50.5 -18zM113 711q-19 -23 -19 -49v-5h105v38
q0 39 -36 39q-31 0 -50 -23z" />
    <glyph glyph-name="uni0691" unicode="&#x691;" horiz-adv-x="354" 
d="M40 0zM40 -244v45q58 -4 76 -4q55 0 82.5 44.5t27.5 122.5v535h53v-517q0 -116 -40.5 -173.5t-124.5 -57.5q-14 0 -74 5zM327.5 729q19.5 -18 19.5 -61v-75h-198v37h18v175h37v-111q14 27 29 40t44 13q31 0 50.5 -18zM223 684q-19 -23 -19 -49v-5h105v38q0 39 -36 39
q-31 0 -50 -23z" />
    <glyph glyph-name="uni0698" unicode="&#x698;" horiz-adv-x="354" 
d="M40 0zM40 -244v45q58 -4 76 -4q55 0 82.5 44.5t27.5 122.5v535h53v-517q0 -116 -40.5 -173.5t-124.5 -57.5q-14 0 -74 5zM216 776h66v-68h-66v68zM161 661h64v-68h-64v68zM274 661h64v-68h-64v68z" />
    <glyph glyph-name="uni06A1" unicode="&#x6a1;" horiz-adv-x="940" 
d="M875 490v-490h-588q-101 0 -154.5 17t-73 49t-19.5 84q0 39 9.5 106t22.5 133l40 -2l-4 -30q-22 -143 -22 -195q0 -49 19.5 -73.5t63 -33.5t124.5 -9h240q-19 33 -26 75t-7 107q0 109 19 166.5t66 81t139 23.5q72 0 134 -7zM592 46h231v405q-77 5 -108 5
q-67 0 -102.5 -22.5t-49 -68t-13.5 -123.5q0 -154 42 -196z" />
    <glyph glyph-name="uni06A4" unicode="&#x6a4;" horiz-adv-x="940" 
d="M40 0zM875 490v-490h-588q-101 0 -154.5 17t-73 49t-19.5 84q0 39 9.5 106t22.5 133l40 -2l-4 -30q-22 -143 -22 -195q0 -49 19.5 -73.5t63 -33.5t124.5 -9h240q-19 33 -26 75t-7 107q0 109 19 166.5t66 81t139 23.5q72 0 134 -7zM592 46h231v405q-77 5 -108 5
q-67 0 -102.5 -22.5t-49 -68t-13.5 -123.5q0 -154 42 -196zM699 776h66v-68h-66v68zM644 661h64v-68h-64v68zM757 661h64v-68h-64v68z" />
    <glyph glyph-name="uni06A9" unicode="&#x6a9;" horiz-adv-x="765" 
d="M652 356.5q40 -52.5 40 -156.5v-200h-405q-101 0 -154.5 17t-73 49t-19.5 84q0 36 8 94t19 116l40 -2l-4 -34q-17 -119 -17 -162q0 -49 19.5 -73.5t63 -33.5t124.5 -9h346v155q0 161 -103 162h-272l-43 59l48 95q18 34 56 88.5t77 104.5l36 -20q-56 -84 -77 -119t-40 -71
l-48 -91h262q77 0 117 -52.5z" />
    <glyph glyph-name="uni06AF" unicode="&#x6af;" horiz-adv-x="765" 
d="M40 0zM652 356.5q40 -52.5 40 -156.5v-200h-405q-101 0 -154.5 17t-73 49t-19.5 84q0 36 8 94t19 116l40 -2l-4 -34q-17 -119 -17 -162q0 -49 19.5 -73.5t63 -33.5t124.5 -9h346v155q0 161 -103 162h-272l-43 59l48 95q18 34 56 88.5t77 104.5l36 -20q-56 -84 -77 -119
t-40 -71l-48 -91h262q77 0 117 -52.5zM178 483l29 57q15 30 56.5 89t80.5 106l29 -16q-42 -51 -89 -118.5t-59 -93.5l-26 -52z" />
    <glyph glyph-name="uni06BA" unicode="&#x6ba;" horiz-adv-x="592" 
d="M164.5 -223.5q-57.5 24.5 -91 70.5t-33.5 107q0 39 13 134t29 184l51 -3q-39 -252 -39 -314q0 -47 26 -82.5t70.5 -55t98.5 -19.5q78 0 133.5 39.5t55.5 118.5v544h52v-551q0 -68 -34.5 -112.5t-89.5 -64.5t-116 -20q-68 0 -125.5 24.5z" />
    <glyph glyph-name="uni06BE" unicode="&#x6be;" horiz-adv-x="723" 
d="M567 459.5q92 -68.5 92 -253.5v-206h-619v46h58v106q1 47 24.5 86t62 61.5t83.5 22.5q44 0 82.5 -21t62.5 -60t24 -89v-106h169v157q0 278 -272 278q-76 0 -204 -23l-2 38q4 2 38.5 10.5t81.5 15t93 6.5q134 0 226 -68.5zM184 243.5q-34 -32.5 -34 -78.5v-119h234v118
q0 47 -33 79.5t-83 32.5t-84 -32.5z" />
    <glyph glyph-name="uni06C1" unicode="&#x6c1;" horiz-adv-x="532" 
d="M40 0zM343 507q71 -3 125 -7v-500h-206q-86 0 -134 26.5t-68 80.5t-20 143q0 136 46.5 198t159.5 62q26 0 97 -3zM109 134q17 -45 57.5 -66.5t111.5 -21.5h138v410q-117 7 -150 7q-95 0 -134.5 -50t-39.5 -160q0 -74 17 -119z" />
    <glyph glyph-name="uni06C2" unicode="&#x6c2;" horiz-adv-x="532" 
d="M40 0zM343 507q71 -3 125 -7v-500h-206q-86 0 -134 26.5t-68 80.5t-20 143q0 136 46.5 198t159.5 62q26 0 97 -3zM109 134q17 -45 57.5 -66.5t111.5 -21.5h138v410q-117 7 -150 7q-95 0 -134.5 -50t-39.5 -160q0 -74 17 -119zM358 629l-197 -38l-8 25l48 13
q-31 27 -31 67q0 35 24 60.5t63 25.5q23 0 42.5 -8.5t28.5 -15.5l-8 -29q-6 5 -19 10t-29 5q-28 0 -45 -17.5t-17 -41.5q0 -28 23 -47l116 31z" />
    <glyph glyph-name="uni06C3" unicode="&#x6c3;" horiz-adv-x="532" 
d="M40 0zM343 507q71 -3 125 -7v-500h-206q-86 0 -134 26.5t-68 80.5t-20 143q0 136 46.5 198t159.5 62q26 0 97 -3zM109 134q17 -45 57.5 -66.5t111.5 -21.5h138v410q-117 7 -150 7q-95 0 -134.5 -50t-39.5 -160q0 -74 17 -119zM171 659h64v-66h-64v66zM284 659h64v-66h-64
v66z" />
    <glyph glyph-name="uni06CC" unicode="&#x6cc;" horiz-adv-x="821" 
d="M40 0zM157.5 -221q-56.5 27 -87 73.5t-30.5 101.5q0 27 7.5 91t18.5 139l50 -8q-24 -165 -24 -206q0 -52 27 -91t71.5 -60t94.5 -21l258 -1q53 0 91 25t57 65t19 84q0 45 -13.5 74t-50 49t-104.5 33q-84 16 -129.5 36t-66.5 56.5t-21 101.5q0 90 53.5 134.5t165.5 44.5
q81 0 203 -17l-6 -46q-151 18 -196 18q-84 0 -126 -33t-42 -98q0 -52 12.5 -76.5t49.5 -39.5t123 -32q107 -21 153 -67t46 -133q0 -61 -23 -112t-71.5 -81.5t-120.5 -30.5h-256q-76 0 -132.5 27z" />
    <glyph glyph-name="uni06D2" unicode="&#x6d2;" horiz-adv-x="749" 
d="M699 305v-97q0 -115 -59.5 -161.5t-172.5 -46.5h-364q-9 -22 -9 -61q0 -67 52 -102.5t169 -35.5h307v-46h-332q-139 0 -194 48t-55 140q0 32 6 60.5t13 42.5h407q85 0 133 35.5t48 125.5v98h51z" />
    <glyph glyph-name="uni06D3" unicode="&#x6d3;" horiz-adv-x="749" 
d="M32 0zM699 305v-97q0 -115 -59.5 -161.5t-172.5 -46.5h-364q-9 -22 -9 -61q0 -67 52 -102.5t169 -35.5h307v-46h-332q-139 0 -194 48t-55 140q0 32 6 60.5t13 42.5h407q85 0 133 35.5t48 125.5v98h51zM237 203l-197 -38l-8 25l48 13q-31 27 -31 67q0 35 24 60.5t63 25.5
q23 0 42.5 -8.5t28.5 -15.5l-8 -29q-6 5 -19 10t-29 5q-28 0 -45 -17.5t-17 -41.5q0 -28 23 -47l116 31z" />
    <glyph glyph-name="uni06D4" unicode="&#x6d4;" horiz-adv-x="199" 
d="M72 91h55v-91h-55v91z" />
    <glyph glyph-name="uni06F0" unicode="&#x6f0;" horiz-adv-x="249" 
d="M80 151zM80 267h89v-116h-89v116z" />
    <glyph glyph-name="uni06F1" unicode="&#x6f1;" horiz-adv-x="307" 
d="M127 0zM127 660h53v-660h-53v660z" />
    <glyph glyph-name="uni06F2" unicode="&#x6f2;" horiz-adv-x="503" 
d="M120 0zM120 660h52v-134q0 -77 27.5 -113t84.5 -36q66 0 91.5 37t25.5 113v133h52v-137q0 -98 -46.5 -144.5t-125.5 -46.5q-81 0 -109 52v-384h-52v660z" />
    <glyph glyph-name="uni06F3" unicode="&#x6f3;" horiz-adv-x="677" 
d="M116 0zM116 660h51v-174q0 -50 16.5 -80t67.5 -30t68.5 30t17.5 79v175h49v-174q0 -108 85 -108q46 0 63 29t17 79v174h57v-176q0 -73 -32.5 -113.5t-99.5 -40.5q-40 0 -73 15t-46 45q-11 -31 -37 -45.5t-59 -14.5q-31 0 -56 13t-37 42v-385h-52v660z" />
    <glyph glyph-name="uni06F4" unicode="&#x6f4;" horiz-adv-x="585" 
d="M556 601v-78q0 -100 -55 -145.5t-167 -45.5q-64 0 -102 12t-57 40v-384h-52v660h52v-134q0 -69 29 -104.5t93 -42.5q-17 18 -31.5 53.5t-14.5 77.5q0 43 21 63t78 20q33 0 75 -7l-2 -40q-48 4 -72 4q-48 0 -48 -52q0 -32 15.5 -64.5t37.5 -56.5q85 4 116.5 40t31.5 110
v74h52z" />
    <glyph glyph-name="uni06F5" unicode="&#x6f5;" horiz-adv-x="591" 
d="M97.5 45q-31.5 48 -31.5 132q0 112 57.5 210.5t153.5 145.5q-31 22 -60 47l-37 29l26 31q120 -70 190.5 -140.5t99.5 -145t29 -161.5q0 -105 -38.5 -150.5t-93.5 -45.5q-40 0 -62 23t-37 63q-21 -47 -46 -66.5t-60 -19.5q-59 0 -90.5 48zM244 56.5q12 14.5 22 41.5
q8 19 13.5 27t15.5 8t16 -8t15 -28q11 -26 24 -40.5t36 -14.5q22 0 42 16.5t32.5 48.5t12.5 77q0 81 -41.5 167.5t-115.5 153.5q-102 -51 -150 -141t-48 -181q0 -67 26 -104t63 -37q25 0 37 14.5z" />
    <glyph glyph-name="uni06F6" unicode="&#x6f6;" horiz-adv-x="479" 
d="M194.5 586q-38.5 -26 -38.5 -78q0 -33 15.5 -62t44 -46.5t66.5 -17.5h105l-6 -50q-111 -57 -181 -110.5t-70 -106.5l-54 -6q0 23 11 51.5t59.5 76t149.5 106.5q-56 -3 -99 20t-67 64t-24 88q0 66 50.5 104.5t150.5 38.5q61 0 94 -11l-3 -43q-72 8 -101 8
q-64 0 -102.5 -26z" />
    <glyph glyph-name="uni06F7" unicode="&#x6f7;" horiz-adv-x="584" 
d="M37 0zM542 649l-216 -649h-81l-208 649h61l190 -606h2q1 12 85 272t110 334h57z" />
    <glyph glyph-name="uni06F8" unicode="&#x6f8;" horiz-adv-x="584" 
d="M37 0zM374.5 337q-83.5 258 -84.5 269h-2q0 1 -180 -574l-10 -32h-61l208 649h81l216 -649h-57q-27 79 -110.5 337z" />
    <glyph glyph-name="uni06F9" unicode="&#x6f9;" horiz-adv-x="561" 
d="M42 0zM391 266q-30 -9 -67.5 -14t-69.5 -5q-118 0 -165 63.5t-47 144.5q0 97 66.5 151t176.5 54q33 0 78 -5.5t80 -11.5v-643h-52v266zM391 309v290q-8 4 -44 10.5t-75 6.5q-84 0 -131 -41.5t-47 -119.5t47 -121t118 -43q47 0 132 18z" />
    <glyph glyph-name="Wgrave" unicode="&#x1e80;" horiz-adv-x="867" 
d="M35 0zM35 697h52l132 -651h35l150 643h59l150 -643h35l132 651h51l-145 -697h-111l-142 623l-141 -623h-111zM317 882l20 43l200 -97l-18 -36z" />
    <glyph glyph-name="wgrave" unicode="&#x1e81;" horiz-adv-x="758" 
d="M34 0zM34 500h50l119 -456h12l138 446h52l137 -446h14l117 456h51l-130 -500h-88l-127 428l-127 -428h-89zM246 692l20 42l200 -96l-17 -35z" />
    <glyph glyph-name="Wacute" unicode="&#x1e82;" horiz-adv-x="867" 
d="M35 0zM35 697h52l132 -651h35l150 643h59l150 -643h35l132 651h51l-145 -697h-111l-142 623l-141 -623h-111zM334 828l200 97l20 -43l-202 -90z" />
    <glyph glyph-name="wacute" unicode="&#x1e83;" horiz-adv-x="758" 
d="M34 0zM34 500h50l119 -456h12l138 446h52l137 -446h14l117 456h51l-130 -500h-88l-127 428l-127 -428h-89zM288 638l201 96l19 -42l-203 -89z" />
    <glyph glyph-name="Wdieresis" unicode="&#x1e84;" horiz-adv-x="867" 
d="M35 0zM35 697h52l132 -651h35l150 643h59l150 -643h35l132 651h51l-145 -697h-111l-142 623l-141 -623h-111zM310 899h49v-72h-49v72zM508 899h48v-72h-48v72z" />
    <glyph glyph-name="wdieresis" unicode="&#x1e85;" horiz-adv-x="758" 
d="M34 0zM34 500h50l119 -456h12l138 446h52l137 -446h14l117 456h51l-130 -500h-88l-127 428l-127 -428h-89zM259 704h48v-72h-48v72zM452 704h49v-72h-49v72z" />
    <glyph glyph-name="uni1EAB" unicode="&#x1eab;" horiz-adv-x="497" 
d="M45 0zM79.5 29q-34.5 38 -34.5 107t34 104.5t109 44.5l179 18v48q0 58 -24.5 85.5t-67.5 27.5q-44 0 -82 -3t-119 -12l-3 41q108 19 192 19q79 0 116 -38t37 -120v-277q1 -16 19 -27t50 -15l-2 -41q-36 0 -64.5 11t-44.5 31q-94 -42 -194 -42q-66 0 -100.5 38zM340 62
l27 9v191l-173 -17q-52 -4 -74.5 -29t-22.5 -74q0 -108 87 -108q78 0 156 28zM218 702h37l122 -135h-54l-85 96l-88 -96h-54zM227 758q-54 25 -68 25q-23 0 -60 -33l-13 -10l-13 36q25 27 45 37.5t40 10.5q21 0 75 -25q56 -25 66 -25q18 0 55 31l12 9l12 -36
q-26 -28 -42.5 -37t-35.5 -9t-73 26z" />
    <glyph glyph-name="uni1EB0" unicode="&#x1eb0;" horiz-adv-x="594" 
d="M27 0zM457 202h-321l-60 -202h-49l206 697h127l206 -697h-49zM323 652h-52l-122 -403h295zM189.5 802q-40.5 34 -41.5 88h46q0 -35 29 -58.5t70 -23.5t69 23t28 59h48q-1 -54 -42.5 -88t-103.5 -34t-102.5 34zM127 1023l20 43l200 -97l-18 -36z" />
    <glyph glyph-name="uni1EC5" unicode="&#x1ec5;" horiz-adv-x="502" 
d="M56 0zM101.5 50q-45.5 59 -45.5 187q0 139 49.5 205.5t155.5 66.5q98 0 145 -57.5t47 -179.5l-1 -42h-346q-1 -72 14 -114.5t51.5 -62t101.5 -19.5q27 0 63.5 1.5t67.5 4.5l30 3l2 -41q-104 -11 -177 -11q-112 0 -157.5 59zM403 272q0 104 -34 149.5t-108 45.5
q-77 0 -116 -47.5t-40 -147.5h298zM235 702h37l122 -135h-54l-85 96l-88 -96h-54zM252 758q-54 25 -68 25q-23 0 -60 -33l-13 -10l-13 36q25 27 45 37.5t40 10.5q21 0 75 -25q56 -25 66 -25q18 0 55 31l12 9l12 -36q-26 -28 -42.5 -37t-35.5 -9t-73 26z" />
    </font>
</defs>
</svg>
